  0
SECTION
  2
HEADER
  9
$ACADVER
  1
AC1015
  9
$ACADMAINTVER
 70
    20
  9
$DWGCODEPAGE
  3
ANSI_1252
  9
$INSBASE
 10
0.0
 20
0.0
 30
0.0
  9
$EXTMIN
 10
-0.0024405493707036
 20
0.1884155764575297
 30
-0.0000000000000018
  9
$EXTMAX
 10
31.50046550225585
 20
20.70103459444483
 30
0.0000000000000135
  9
$LIMMIN
 10
0.0
 20
0.0
  9
$LIMMAX
 10
32.0
 20
21.0
  9
$ORTHOMODE
 70
     0
  9
$REGENMODE
 70
     1
  9
$FILLMODE
 70
     1
  9
$QTEXTMODE
 70
     0
  9
$MIRRTEXT
 70
     1
  9
$LTSCALE
 40
0.03125
  9
$ATTMODE
 70
     1
  9
$TEXTSIZE
 40
0.25
  9
$TRACEWID
 40
0.05
  9
$TEXTSTYLE
  7
STANDARD
  9
$CLAYER
  8
0
  9
$CELTYPE
  6
ByLayer
  9
$CECOLOR
 62
   256
  9
$CELTSCALE
 40
1.0
  9
$DISPSILH
 70
     0
  9
$DIMSCALE
 40
1.0
  9
$DIMASZ
 40
0.15
  9
$DIMEXO
 40
0.0625
  9
$DIMDLI
 40
0.38
  9
$DIMRND
 40
0.0
  9
$DIMDLE
 40
0.0
  9
$DIMEXE
 40
0.18
  9
$DIMTP
 40
0.0
  9
$DIMTM
 40
0.0
  9
$DIMTXT
 40
0.18
  9
$DIMCEN
 40
0.09
  9
$DIMTSZ
 40
0.0
  9
$DIMTOL
 70
     0
  9
$DIMLIM
 70
     0
  9
$DIMTIH
 70
     1
  9
$DIMTOH
 70
     1
  9
$DIMSE1
 70
     0
  9
$DIMSE2
 70
     0
  9
$DIMTAD
 70
     0
  9
$DIMZIN
 70
     0
  9
$DIMBLK
  1

  9
$DIMASO
 70
     1
  9
$DIMSHO
 70
     0
  9
$DIMPOST
  1

  9
$DIMAPOST
  1

  9
$DIMALT
 70
     0
  9
$DIMALTD
 70
     2
  9
$DIMALTF
 40
25.4
  9
$DIMLFAC
 40
1.0
  9
$DIMTOFL
 70
     0
  9
$DIMTVP
 40
0.0
  9
$DIMTIX
 70
     0
  9
$DIMSOXD
 70
     0
  9
$DIMSAH
 70
     0
  9
$DIMBLK1
  1

  9
$DIMBLK2
  1

  9
$DIMSTYLE
  2
Standard
  9
$DIMCLRD
 70
     0
  9
$DIMCLRE
 70
     0
  9
$DIMCLRT
 70
     0
  9
$DIMTFAC
 40
1.0
  9
$DIMGAP
 40
0.09
  9
$DIMJUST
 70
     0
  9
$DIMSD1
 70
     0
  9
$DIMSD2
 70
     0
  9
$DIMTOLJ
 70
     1
  9
$DIMTZIN
 70
     0
  9
$DIMALTZ
 70
     0
  9
$DIMALTTZ
 70
     0
  9
$DIMUPT
 70
     0
  9
$DIMDEC
 70
     4
  9
$DIMTDEC
 70
     4
  9
$DIMALTU
 70
     2
  9
$DIMALTTD
 70
     2
  9
$DIMTXSTY
  7
STANDARD
  9
$DIMAUNIT
 70
     0
  9
$DIMADEC
 70
     0
  9
$DIMALTRND
 40
0.0
  9
$DIMAZIN
 70
     0
  9
$DIMDSEP
 70
    46
  9
$DIMATFIT
 70
     3
  9
$DIMFRAC
 70
     0
  9
$DIMLDRBLK
  1

  9
$DIMLUNIT
 70
     2
  9
$DIMLWD
 70
    -2
  9
$DIMLWE
 70
    -2
  9
$DIMTMOVE
 70
     0
  9
$LUNITS
 70
     2
  9
$LUPREC
 70
     3
  9
$SKETCHINC
 40
0.1
  9
$FILLETRAD
 40
0.0
  9
$AUNITS
 70
     0
  9
$AUPREC
 70
     2
  9
$MENU
  1
acad
  9
$ELEVATION
 40
0.0
  9
$PELEVATION
 40
0.0
  9
$THICKNESS
 40
0.0
  9
$LIMCHECK
 70
     0
  9
$CHAMFERA
 40
0.0
  9
$CHAMFERB
 40
0.0
  9
$CHAMFERC
 40
0.0
  9
$CHAMFERD
 40
0.0
  9
$SKPOLY
 70
     0
  9
$TDCREATE
 40
2448978.529920139
  9
$TDUCREATE
 40
2448978.738253472
  9
$TDUPDATE
 40
2454840.606943947
  9
$TDUUPDATE
 40
2454840.815277281
  9
$TDINDWG
 40
1.3893309954
  9
$TDUSRTIMER
 40
1.3893309954
  9
$USRTIMER
 70
     1
  9
$ANGBASE
 50
0.0
  9
$ANGDIR
 70
     0
  9
$PDMODE
 70
     0
  9
$PDSIZE
 40
0.0
  9
$PLINEWID
 40
0.0
  9
$SPLFRAME
 70
     0
  9
$SPLINETYPE
 70
     6
  9
$SPLINESEGS
 70
     8
  9
$HANDSEED
  5
1D54
  9
$SURFTAB1
 70
     6
  9
$SURFTAB2
 70
     6
  9
$SURFTYPE
 70
     6
  9
$SURFU
 70
     6
  9
$SURFV
 70
     6
  9
$UCSBASE
  2

  9
$UCSNAME
  2

  9
$UCSORG
 10
0.0
 20
0.0
 30
0.0
  9
$UCSXDIR
 10
1.0
 20
0.0
 30
0.0
  9
$UCSYDIR
 10
0.0
 20
1.0
 30
0.0
  9
$UCSORTHOREF
  2

  9
$UCSORTHOVIEW
 70
     0
  9
$UCSORGTOP
 10
0.0
 20
0.0
 30
0.0
  9
$UCSORGBOTTOM
 10
0.0
 20
0.0
 30
0.0
  9
$UCSORGLEFT
 10
0.0
 20
0.0
 30
0.0
  9
$UCSORGRIGHT
 10
0.0
 20
0.0
 30
0.0
  9
$UCSORGFRONT
 10
0.0
 20
0.0
 30
0.0
  9
$UCSORGBACK
 10
0.0
 20
0.0
 30
0.0
  9
$PUCSBASE
  2

  9
$PUCSNAME
  2

  9
$PUCSORG
 10
0.0
 20
0.0
 30
0.0
  9
$PUCSXDIR
 10
1.0
 20
0.0
 30
0.0
  9
$PUCSYDIR
 10
0.0
 20
1.0
 30
0.0
  9
$PUCSORTHOREF
  2

  9
$PUCSORTHOVIEW
 70
     0
  9
$PUCSORGTOP
 10
0.0
 20
0.0
 30
0.0
  9
$PUCSORGBOTTOM
 10
0.0
 20
0.0
 30
0.0
  9
$PUCSORGLEFT
 10
0.0
 20
0.0
 30
0.0
  9
$PUCSORGRIGHT
 10
0.0
 20
0.0
 30
0.0
  9
$PUCSORGFRONT
 10
0.0
 20
0.0
 30
0.0
  9
$PUCSORGBACK
 10
0.0
 20
0.0
 30
0.0
  9
$USERI1
 70
     0
  9
$USERI2
 70
     0
  9
$USERI3
 70
     0
  9
$USERI4
 70
     0
  9
$USERI5
 70
     0
  9
$USERR1
 40
0.0
  9
$USERR2
 40
0.0
  9
$USERR3
 40
0.0
  9
$USERR4
 40
0.0
  9
$USERR5
 40
0.0
  9
$WORLDVIEW
 70
     1
  9
$SHADEDGE
 70
     3
  9
$SHADEDIF
 70
    70
  9
$TILEMODE
 70
     1
  9
$MAXACTVP
 70
    64
  9
$PINSBASE
 10
0.0
 20
0.0
 30
0.0
  9
$PLIMCHECK
 70
     0
  9
$PEXTMIN
 10
0.9659999486968287
 20
0.8105000079147455
 30
0.0
  9
$PEXTMAX
 10
16.73234839051299
 20
14.03889153538586
 30
0.0
  9
$PLIMMIN
 10
-0.1966666612099475
 20
-0.6683330085333877
  9
$PLIMMAX
 10
21.80166520471648
 20
16.32833360687016
  9
$UNITMODE
 70
     0
  9
$VISRETAIN
 70
     1
  9
$PLINEGEN
 70
     0
  9
$PSLTSCALE
 70
     0
  9
$TREEDEPTH
 70
  3020
  9
$CMLSTYLE
  2
Standard
  9
$CMLJUST
 70
     0
  9
$CMLSCALE
 40
1.0
  9
$PROXYGRAPHICS
 70
     1
  9
$MEASUREMENT
 70
     0
  9
$CELWEIGHT
370
    -1
  9
$ENDCAPS
280
     0
  9
$JOINSTYLE
280
     0
  9
$LWDISPLAY
290
     0
  9
$INSUNITS
 70
     4
  9
$HYPERLINKBASE
  1

  9
$STYLESHEET
  1
monochrome.ctb
  9
$XEDIT
290
     1
  9
$CEPSNTYPE
380
     0
  9
$PSTYLEMODE
290
     1
  9
$FINGERPRINTGUID
  2
{E67419C3-881C-4283-8B1C-E73CC02F4D74}
  9
$VERSIONGUID
  2
{6583049A-A0B0-42C8-8FF3-FBB19D9D5CF5}
  9
$EXTNAMES
290
     1
  9
$PSVPSCALE
 40
0.0
  9
$OLESTARTUP
290
     0
  0
ENDSEC
  0
SECTION
  2
CLASSES
  0
CLASS
  1
ACDBDICTIONARYWDFLT
  2
AcDbDictionaryWithDefault
  3
ObjectDBX Classes
 90
        0
280
     0
281
     0
  0
CLASS
  1
ACDBPLACEHOLDER
  2
AcDbPlaceHolder
  3
ObjectDBX Classes
 90
        0
280
     0
281
     0
  0
CLASS
  1
LAYOUT
  2
AcDbLayout
  3
ObjectDBX Classes
 90
        0
280
     0
281
     0
  0
CLASS
  1
DIMASSOC
  2
AcDbDimAssoc
  3
"AcDbDimAssoc|Product Desc:     AcDim ARX App For Dimension|Company:          Autodesk, Inc.|WEB Address:      www.autodesk.com"
 90
        0
280
     0
281
     0
  0
CLASS
  1
DICTIONARYVAR
  2
AcDbDictionaryVar
  3
ObjectDBX Classes
 90
        0
280
     0
281
     0
  0
CLASS
  1
TABLESTYLE
  2
AcDbTableStyle
  3
ObjectDBX Classes
 90
     4095
280
     0
281
     0
  0
CLASS
  1
MATERIAL
  2
AcDbMaterial
  3
ObjectDBX Classes
 90
     1153
280
     0
281
     0
  0
CLASS
  1
VISUALSTYLE
  2
AcDbVisualStyle
  3
ObjectDBX Classes
 90
     4095
280
     0
281
     0
  0
CLASS
  1
SCALE
  2
AcDbScale
  3
ObjectDBX Classes
 90
     1153
280
     0
281
     0
  0
CLASS
  1
MLEADERSTYLE
  2
AcDbMLeaderStyle
  3
ACDB_MLEADERSTYLE_CLASS
 90
     4095
280
     0
281
     0
  0
CLASS
  1
SORTENTSTABLE
  2
AcDbSortentsTable
  3
ObjectDBX Classes
 90
        0
280
     0
281
     0
  0
CLASS
  1
CELLSTYLEMAP
  2
AcDbCellStyleMap
  3
ObjectDBX Classes
 90
     1152
280
     0
281
     0
  0
ENDSEC
  0
SECTION
  2
TABLES
  0
TABLE
  2
VPORT
  5
8
330
0
100
AcDbSymbolTable
 70
     1
  0
VPORT
  5
1C45
330
8
100
AcDbSymbolTableRecord
100
AcDbViewportTableRecord
  2
*Active
 70
     0
 10
0.0
 20
0.0
 11
1.0
 21
1.0
 12
15.74901247644257
 22
10.44472508545118
 13
0.0
 23
0.0
 14
1.0
 24
1.0
 15
0.0
 25
0.0
 16
0.0
 26
0.0
 36
1.0
 17
0.0
 27
0.0
 37
0.0
 40
20.72193145694636
 41
1.827938671209539
 42
50.0
 43
0.0
 44
0.0
 50
0.0
 51
0.0
 71
     0
 72
 19000
 73
     1
 74
     0
 75
     0
 76
     0
 77
     0
 78
     0
281
     0
 65
     1
110
0.0
120
0.0
130
0.0
111
1.0
121
0.0
131
0.0
112
0.0
122
1.0
132
0.0
 79
     0
146
0.0
  0
ENDTAB
  0
TABLE
  2
LTYPE
  5
5
330
0
100
AcDbSymbolTable
 70
     5
  0
LTYPE
  5
13
330
5
100
AcDbSymbolTableRecord
100
AcDbLinetypeTableRecord
  2
ByBlock
 70
     0
  3

 72
    65
 73
     0
 40
0.0
  0
LTYPE
  5
14
330
5
100
AcDbSymbolTableRecord
100
AcDbLinetypeTableRecord
  2
ByLayer
 70
     0
  3

 72
    65
 73
     0
 40
0.0
  0
LTYPE
  5
15
330
5
100
AcDbSymbolTableRecord
100
AcDbLinetypeTableRecord
  2
CONTINUOUS
 70
     0
  3
Solid line
 72
    65
 73
     0
 40
0.0
  0
LTYPE
  5
29
330
5
100
AcDbSymbolTableRecord
100
AcDbLinetypeTableRecord
  2
CENTER
 70
     0
  3
____ _ ____ _ ____ _ ____ _ ____ _ ____ _ ____
 72
    65
 73
     4
 40
2.0
 49
1.25
 74
     0
 49
-0.25
 74
     0
 49
0.25
 74
     0
 49
-0.25
 74
     0
  0
LTYPE
  5
2A
330
5
100
AcDbSymbolTableRecord
100
AcDbLinetypeTableRecord
  2
HIDDEN
 70
     0
  3
_ _ _ _ _ _ _ _ _ _ _ _ _ _ _ _ _ _ _ _ _ _ _
 72
    65
 73
     2
 40
0.375
 49
0.25
 74
     0
 49
-0.125
 74
     0
  0
LTYPE
  5
1569
330
5
100
AcDbSymbolTableRecord
100
AcDbLinetypeTableRecord
  2
AI9-LType1
 70
     0
  3
Illustrator Dash Style No.1
 72
    65
 73
     4
 40
2.116793565783235
 49
0.8819973488648731
 74
     0
 49
-0.5291983756754134
 74
     0
 49
0.1763994655675358
 74
     0
 49
-0.5291983756754134
 74
     0
  0
ENDTAB
  0
TABLE
  2
LAYER
  5
2
330
0
100
AcDbSymbolTable
 70
    10
  0
LAYER
  5
10
102
{ACAD_XDICTIONARY
360
1CDE
102
}
330
2
100
AcDbSymbolTableRecord
100
AcDbLayerTableRecord
  2
0
 70
     0
 62
     7
  6
CONTINUOUS
370
    -3
390
F
  0
LAYER
  5
33
330
2
100
AcDbSymbolTableRecord
100
AcDbLayerTableRecord
  2
DEFPOINTS
 70
     0
 62
     7
  6
CONTINUOUS
290
     0
370
    -3
390
F
  0
LAYER
  5
36
102
{ACAD_XDICTIONARY
360
1CE2
102
}
330
2
100
AcDbSymbolTableRecord
100
AcDbLayerTableRecord
  2
DBDR
 70
     0
 62
     9
  6
CONTINUOUS
370
    -3
390
F
  0
LAYER
  5
37
102
{ACAD_XDICTIONARY
360
1CE4
102
}
330
2
100
AcDbSymbolTableRecord
100
AcDbLayerTableRecord
  2
OL
 70
     0
 62
     9
  6
CONTINUOUS
370
    -3
390
F
  0
LAYER
  5
390
102
{ACAD_XDICTIONARY
360
1CE8
102
}
330
2
100
AcDbSymbolTableRecord
100
AcDbLayerTableRecord
  2
DIM
 70
     0
 62
    74
  6
CONTINUOUS
370
    -3
390
F
  0
LAYER
  5
156A
102
{ACAD_XDICTIONARY
360
1CEC
102
}
330
2
100
AcDbSymbolTableRecord
100
AcDbLayerTableRecord
  2
LAYER_1
 70
     0
 62
   200
  6
CONTINUOUS
370
    -3
390
F
  0
ENDTAB
  0
TABLE
  2
STYLE
  5
3
330
0
100
AcDbSymbolTable
 70
     5
  0
STYLE
  5
11
330
3
100
AcDbSymbolTableRecord
100
AcDbTextStyleTableRecord
  2
STANDARD
 70
     0
 40
0.0
 41
1.0
 50
0.0
 71
     0
 42
0.25
  3
txt
  4

  0
STYLE
  5
26
330
3
100
AcDbSymbolTableRecord
100
AcDbTextStyleTableRecord
  2
STD
 70
     0
 40
0.075
 41
1.0
 50
0.0
 71
     0
 42
0.075
  3
txt
  4

  0
STYLE
  5
27
330
3
100
AcDbSymbolTableRecord
100
AcDbTextStyleTableRecord
  2
ROMANT
 70
     0
 40
0.12
 41
1.0
 50
0.0
 71
     0
 42
0.12
  3
romant
  4

  0
STYLE
  5
4C9
330
3
100
AcDbSymbolTableRecord
100
AcDbTextStyleTableRecord
  2
ROMANTS
 70
     0
 40
0.0
 41
1.0
 50
0.0
 71
     0
 42
3.0
  3
romant.shx
  4

  0
ENDTAB
  0
TABLE
  2
VIEW
  5
6
330
0
100
AcDbSymbolTable
 70
     0
  0
ENDTAB
  0
TABLE
  2
UCS
  5
7
330
0
100
AcDbSymbolTable
 70
     0
  0
ENDTAB
  0
TABLE
  2
APPID
  5
9
330
0
100
AcDbSymbolTable
 70
     4
  0
APPID
  5
12
330
9
100
AcDbSymbolTableRecord
100
AcDbRegAppTableRecord
  2
ACAD
 70
     0
  0
APPID
  5
1C1F
330
9
100
AcDbSymbolTableRecord
100
AcDbRegAppTableRecord
  2
ACAD_PSEXT
 70
     0
  0
APPID
  5
1C90
330
9
100
AcDbSymbolTableRecord
100
AcDbRegAppTableRecord
  2
ACAD_MLEADERVER
 70
     0
  0
APPID
  5
1CD5
330
9
100
AcDbSymbolTableRecord
100
AcDbRegAppTableRecord
  2
ACAD_EXEMPT_FROM_CAD_STANDARDS
 70
     0
  0
ENDTAB
  0
TABLE
  2
DIMSTYLE
  5
A
330
0
100
AcDbSymbolTable
 70
     1
100
AcDbDimStyleTable
 71
     1
340
D2
  0
DIMSTYLE
105
D2
102
{ACAD_REACTORS
330
444
330
136A
330
144F
330
3F7
330
3F3
330
446
330
3F9
330
3F5
330
197B
330
1983
330
19E0
330
1B1B
330
1C9D
102
}
330
A
100
AcDbSymbolTableRecord
100
AcDbDimStyleTableRecord
  2
Standard
 70
     0
 41
0.15
340
11
  0
ENDTAB
  0
TABLE
  2
BLOCK_RECORD
  5
1
330
0
100
AcDbSymbolTable
 70
    11
  0
BLOCK_RECORD
  5
1E
102
{ACAD_XDICTIONARY
360
1C9B
102
}
330
1
100
AcDbSymbolTableRecord
100
AcDbBlockTableRecord
  2
*Model_Space
340
21
  0
BLOCK_RECORD
  5
1A
330
1
100
AcDbSymbolTableRecord
100
AcDbBlockTableRecord
  2
*Paper_Space
340
1D
  0
BLOCK_RECORD
  5
14BA
330
1
100
AcDbSymbolTableRecord
100
AcDbBlockTableRecord
  2
AI9-BLK1
340
0
102
{BLKREFS
331
18CF
102
}
  0
BLOCK_RECORD
  5
14CB
330
1
100
AcDbSymbolTableRecord
100
AcDbBlockTableRecord
  2
AI9-BLK2
340
0
102
{BLKREFS
331
18D0
102
}
  0
BLOCK_RECORD
  5
14EA
330
1
100
AcDbSymbolTableRecord
100
AcDbBlockTableRecord
  2
AI9-BLK3
340
0
102
{BLKREFS
331
158D
102
}
  0
BLOCK_RECORD
  5
1541
330
1
100
AcDbSymbolTableRecord
100
AcDbBlockTableRecord
  2
AI9-BLK4
340
0
102
{BLKREFS
331
158E
102
}
  0
BLOCK_RECORD
  5
154A
330
1
100
AcDbSymbolTableRecord
100
AcDbBlockTableRecord
  2
AI9-BLK5
340
0
102
{BLKREFS
331
1580
102
}
  0
BLOCK_RECORD
  5
156B
330
1
100
AcDbSymbolTableRecord
100
AcDbBlockTableRecord
  2
9960-install 2
340
0
102
{BLKREFS
331
18F1
102
}
  0
BLOCK_RECORD
  5
1A02
330
1
100
AcDbSymbolTableRecord
100
AcDbBlockTableRecord
  2
*D7
340
0
  0
BLOCK_RECORD
  5
1B1C
330
1
100
AcDbSymbolTableRecord
100
AcDbBlockTableRecord
  2
*D8
340
0
  0
BLOCK_RECORD
  5
1C9E
330
1
100
AcDbSymbolTableRecord
100
AcDbBlockTableRecord
  2
*D9
340
0
  0
BLOCK_RECORD
  5
1CD6
102
{ACAD_XDICTIONARY
360
1CD8
102
}
330
1
100
AcDbSymbolTableRecord
100
AcDbBlockTableRecord
  2
Full Scale Note
340
0
102
{BLKREFS
331
1CDD
102
}
  0
ENDTAB
  0
ENDSEC
  0
SECTION
  2
BLOCKS
  0
BLOCK
  5
3A
330
1E
100
AcDbEntity
  8
0
100
AcDbBlockBegin
  2
*Model_Space
 70
     0
 10
0.0
 20
0.0
 30
0.0
  3
*Model_Space
  1

  0
ENDBLK
  5
3B
330
1E
100
AcDbEntity
  8
0
100
AcDbBlockEnd
  0
BLOCK
  5
38
330
1A
100
AcDbEntity
 67
     1
  8
0
100
AcDbBlockBegin
  2
*Paper_Space
 70
     0
 10
0.0
 20
0.0
 30
0.0
  3
*Paper_Space
  1

  0
ENDBLK
  5
39
330
1A
100
AcDbEntity
 67
     1
  8
0
100
AcDbBlockEnd
  0
BLOCK
  5
14C9
330
14BA
100
AcDbEntity
  8
LAYER_1
 62
     7
100
AcDbBlockBegin
  2
AI9-BLK1
 70
     0
 71
     1
 10
0.0
 20
0.0
 30
0.0
  3
AI9-BLK1
  1

  0
SPLINE
  5
14BB
330
14BA
100
AcDbEntity
  8
LAYER_1
 62
     7
100
AcDbSpline
210
0.0
220
0.0
230
1.0
 70
     8
 71
     3
 72
    14
 73
    10
 74
     0
 42
0.0000000001
 43
0.0000000001
 40
0.0
 40
0.0
 40
0.0
 40
0.0
 40
1.0
 40
1.0
 40
1.0
 40
2.0
 40
2.0
 40
2.0
 40
3.0
 40
3.0
 40
3.0
 40
3.0
 10
0.7501695421006945
 20
0.7003879123263889
 30
0.0
 10
0.6130547417534722
 20
1.155829535590277
 30
0.0
 10
0.1266072591145833
 20
1.17856716579861
 30
0.0
 10
-0.3357245551215278
 20
0.7534423828125
 30
0.0
 10
-0.7980563693576388
 20
0.3276285807291666
 30
0.0
 10
-1.06195068359375
 20
-0.3861952039930555
 30
0.0
 10
-0.9241468641493055
 20
-0.8402587890625
 30
0.0
 10
-0.8400865342881942
 20
-1.119311523437499
 30
0.0
 10
-0.618911404079861
 20
-1.24678005642361
 30
0.0
 10
-0.3357245551215278
 20
-1.180634223090277
 30
0.0
  0
SPLINE
  5
14BC
330
14BA
100
AcDbEntity
  8
LAYER_1
 62
     7
100
AcDbSpline
210
0.0
220
0.0
230
1.0
 70
     8
 71
     3
 72
    11
 73
     7
 74
     0
 42
0.0000000001
 43
0.0000000001
 40
0.0
 40
0.0
 40
0.0
 40
0.0
 40
1.0
 40
1.0
 40
1.0
 40
2.0
 40
2.0
 40
2.0
 40
2.0
 10
1.008551703559027
 20
0.4688774956597223
 30
0.0
 10
0.7281209309895833
 20
0.6301079644097222
 30
0.0
 10
0.2740573459201388
 20
0.3682807074652778
 30
0.0
 10
-0.0056844075520833
 20
-0.1167887369791666
 30
0.0
 10
-0.2861151801215278
 20
-0.6018581814236111
 30
0.0
 10
-0.2861151801215278
 20
-1.126201714409722
 30
0.0
 10
-0.0056844075520833
 20
-1.288121202256944
 30
0.0
  0
ELLIPSE
  5
14BD
330
14BA
100
AcDbEntity
  8
LAYER_1
 62
     7
100
AcDbEllipse
 10
0.7956448025173611
 20
-0.5794650607638889
 30
0.0
 11
0.5071180555555556
 21
0.8781548394097221
 31
0.0
210
0.0
220
0.0
230
0.9999999999999998
 40
0.5773026221833606
 41
0.0
 42
6.283185307179586
  0
SPLINE
  5
14BE
330
14BA
100
AcDbEntity
  8
LAYER_1
 62
     7
100
AcDbSpline
210
0.0
220
0.0
230
1.0
 70
     8
 71
     3
 72
    14
 73
    10
 74
     0
 42
0.0000000001
 43
0.0000000001
 40
0.0
 40
0.0
 40
0.0
 40
0.0
 40
1.0
 40
1.0
 40
1.0
 40
2.0
 40
2.0
 40
2.0
 40
3.0
 40
3.0
 40
3.0
 40
3.0
 10
1.362707519531249
 20
0.2545925564236111
 30
0.0
 10
1.282781304253472
 20
0.7582655164930556
 30
0.0
 10
0.83250732421875
 20
0.868508572048611
 30
0.0
 10
0.3567396375868055
 20
0.5019504123263889
 30
0.0
 10
-0.1186835394965278
 20
0.1347032335069444
 30
0.0
 10
-0.4397664388020833
 20
-0.5708523220486111
 30
0.0
 10
-0.3601847330729166
 20
-1.073836263020833
 30
0.0
 10
-0.2981730143229166
 20
-1.461754014756944
 30
0.0
 10
-0.0105075412326389
 20
-1.628496636284721
 30
0.0
 10
0.3567396375868055
 20
-1.487936740451388
 30
0.0
  0
LINE
  5
14BF
330
14BA
100
AcDbEntity
  8
LAYER_1
 62
     7
100
AcDbLine
 10
0.2885267469618055
 20
-1.45761990017361
 30
0.0
 11
-0.0056844075520833
 21
-1.288121202256944
 31
0.0
  0
LINE
  5
14C0
330
14BA
100
AcDbEntity
  8
LAYER_1
 62
     7
100
AcDbLine
 10
-0.5210706922743055
 20
1.35219997829861
 30
0.0
 11
-0.7567152235243056
 21
1.487936740451388
 31
0.0
  0
SPLINE
  5
14C1
330
14BA
100
AcDbEntity
  8
LAYER_1
 62
     7
100
AcDbSpline
210
0.0
220
0.0
230
1.0
 70
     8
 71
     3
 72
    14
 73
    10
 74
     0
 42
0.0000000001
 43
0.0000000001
 40
0.0
 40
0.0
 40
0.0
 40
0.0
 40
1.0
 40
1.0
 40
1.0
 40
2.0
 40
2.0
 40
2.0
 40
3.0
 40
3.0
 40
3.0
 40
3.0
 10
0.1617472330729166
 20
1.040763346354166
 30
0.0
 10
0.0239434136284722
 20
1.495515950520833
 30
0.0
 10
-0.4618150499131944
 20
1.518253580729166
 30
0.0
 10
-0.9241468641493055
 20
1.093128797743055
 30
0.0
 10
-1.386478678385416
 20
0.6673149956597222
 30
0.0
 10
-1.650372992621527
 20
-0.0465087890625
 30
0.0
 10
-1.512913682725694
 20
-0.5005723741319445
 30
0.0
 10
-1.428853352864583
 20
-0.7789360894097222
 30
0.0
 10
-1.207333713107638
 20
-0.9064046223958332
 30
0.0
 10
-0.9241468641493055
 20
-0.8402587890625
 30
0.0
  0
SPLINE
  5
14C2
330
14BA
100
AcDbEntity
  8
LAYER_1
 62
     7
100
AcDbSpline
210
0.0
220
0.0
230
1.0
 70
     8
 71
     3
 72
    11
 73
     7
 74
     0
 42
0.0000000001
 43
0.0000000001
 40
0.0
 40
0.0
 40
0.0
 40
0.0
 40
1.0
 40
1.0
 40
1.0
 40
2.0
 40
2.0
 40
2.0
 40
2.0
 10
0.42012939453125
 20
0.8085639105902776
 30
0.0
 10
0.1400431315104166
 20
0.9697943793402776
 30
0.0
 10
-0.3136759440104166
 20
0.7079671223958333
 30
0.0
 10
-0.5941067165798611
 20
0.2228976779513889
 30
0.0
 10
-0.8741929796006944
 20
-0.2621717664930555
 30
0.0
 10
-0.8741929796006944
 20
-0.7865152994791666
 30
0.0
 10
-0.5941067165798611
 20
-0.9484347873263887
 30
0.0
  0
SPLINE
  5
14C3
330
14BA
100
AcDbEntity
  8
LAYER_1
 62
     7
100
AcDbSpline
210
0.0
220
0.0
230
1.0
 70
     8
 71
     3
 72
    11
 73
     7
 74
     0
 42
0.0000000001
 43
0.0000000001
 40
0.0
 40
0.0
 40
0.0
 40
0.0
 40
1.0
 40
1.0
 40
1.0
 40
2.0
 40
2.0
 40
2.0
 40
2.0
 10
-0.1682929144965277
 20
1.148250325520833
 30
0.0
 10
-0.4483791775173611
 20
1.310169813368055
 30
0.0
 10
-0.9027872721354166
 20
1.047653537326388
 30
0.0
 10
-1.182529025607638
 20
0.5632731119791666
 30
0.0
 10
-1.462615288628471
 20
0.0775146484375
 30
0.0
 10
-1.462615288628471
 20
-0.4468288845486111
 30
0.0
 10
-1.182529025607638
 20
-0.6087483723958333
 30
0.0
  0
LINE
  5
14C4
330
14BA
100
AcDbEntity
  8
LAYER_1
 62
     7
100
AcDbLine
 10
-0.9468844943576387
 20
-0.7444851345486111
 30
0.0
 11
-1.182529025607638
 21
-0.6087483723958333
 31
0.0
  0
LINE
  5
14C5
330
14BA
100
AcDbEntity
  8
LAYER_1
 62
     7
100
AcDbLine
 10
-0.3584621853298611
 20
-1.084171549479166
 30
0.0
 11
-0.5941067165798611
 21
-0.9484347873263887
 31
0.0
  0
LINE
  5
14C6
330
14BA
100
AcDbEntity
  8
LAYER_1
 62
     7
100
AcDbLine
 10
1.302762858072916
 20
0.2986897786458333
 30
0.0
 11
1.008551703559027
 21
0.4688774956597223
 31
0.0
  0
LINE
  5
14C7
330
14BA
100
AcDbEntity
  8
LAYER_1
 62
     7
100
AcDbLine
 10
0.6561184353298611
 20
0.6721381293402777
 30
0.0
 11
0.42012939453125
 21
0.8085639105902776
 31
0.0
  0
LINE
  5
14C8
330
14BA
100
AcDbEntity
  8
LAYER_1
 62
     7
100
AcDbLine
 10
0.0673516167534722
 20
1.012513563368055
 30
0.0
 11
-0.1682929144965277
 21
1.148250325520833
 31
0.0
  0
ENDBLK
  5
14CA
330
14BA
100
AcDbEntity
  8
LAYER_1
100
AcDbBlockEnd
  0
BLOCK
  5
14E8
330
14CB
100
AcDbEntity
  8
LAYER_1
 62
     7
100
AcDbBlockBegin
  2
AI9-BLK2
 70
     0
 71
     1
 10
0.0
 20
0.0
 30
0.0
  3
AI9-BLK2
  1

  0
LINE
  5
14CC
330
14CB
100
AcDbEntity
  8
LAYER_1
 62
     7
100
AcDbLine
 10
-0.7224365234375
 20
-1.14756130642361
 30
0.0
 11
-2.221742078993055
 21
-0.2821533203125
 31
0.0
  0
LINE
  5
14CD
330
14CB
100
AcDbEntity
  8
LAYER_1
 62
     7
100
AcDbLine
 10
-0.2366780598958333
 20
-3.444061957465277
 30
0.0
 11
-1.735294596354166
 21
-2.578653971354166
 31
0.0
  0
SPLINE
  5
14CE
330
14CB
100
AcDbEntity
  8
LAYER_1
 62
     7
100
AcDbSpline
210
0.0
220
0.0
230
1.0
 70
     8
 71
     3
 72
    14
 73
    10
 74
     0
 42
0.0000000001
 43
0.0000000001
 40
0.0
 40
0.0
 40
0.0
 40
0.0
 40
1.0
 40
1.0
 40
1.0
 40
2.0
 40
2.0
 40
2.0
 40
3.0
 40
3.0
 40
3.0
 40
3.0
 10
2.054999457465277
 20
2.135614691840277
 30
0.0
 10
1.672593858506944
 20
3.378605143229166
 30
0.0
 10
0.3345187717013889
 20
3.435104709201388
 30
0.0
 10
-0.9339653862847221
 20
2.261016167534722
 30
0.0
 10
-2.20176052517361
 20
1.086927625868055
 30
0.0
 10
-2.919718424479166
 20
-0.8726426866319442
 30
0.0
 10
-2.536968315972222
 20
-2.115633138020833
 30
0.0
 10
-2.304424370659722
 20
-2.870109049479166
 30
0.0
 10
-1.702910698784721
 20
-3.217374674479166
 30
0.0
 10
-0.9339653862847221
 20
-3.041674804687499
 30
0.0
  0
POLYLINE
  5
14CF
330
14CB
100
AcDbEntity
  8
LAYER_1
 62
     7
100
AcDb2dPolyline
 66
     1
 10
0.0
 20
0.0
 30
0.0
  0
VERTEX
  5
14D0
330
14CF
100
AcDbEntity
  8
LAYER_1
 62
     7
100
AcDbVertex
100
AcDb2dVertex
 10
1.253670247395833
 20
2.598635525173611
 30
0.0
  0
VERTEX
  5
14D1
330
14CF
100
AcDbEntity
  8
LAYER_1
 62
     7
100
AcDbVertex
100
AcDb2dVertex
 10
-0.9784071180555555
 20
1.871031358506944
 30
0.0
  0
VERTEX
  5
14D2
330
14CF
100
AcDbEntity
  8
LAYER_1
 62
     7
100
AcDbVertex
100
AcDb2dVertex
 10
-2.221742078993055
 20
-0.2821533203125
 30
0.0
  0
VERTEX
  5
14D3
330
14CF
100
AcDbEntity
  8
LAYER_1
 62
     7
100
AcDbVertex
100
AcDb2dVertex
 10
-1.735294596354166
 20
-2.578653971354166
 30
0.0
  0
SEQEND
  5
14D4
330
14CF
100
AcDbEntity
  8
LAYER_1
 62
     7
  0
SPLINE
  5
14D5
330
14CB
100
AcDbEntity
  8
LAYER_1
 62
     7
100
AcDbSpline
210
0.0
220
0.0
230
1.0
 70
     8
 71
     3
 72
    17
 73
    13
 74
     0
 42
0.0000000001
 43
0.0000000001
 40
0.0
 40
0.0
 40
0.0
 40
0.0
 40
1.0
 40
1.0
 40
1.0
 40
2.0
 40
2.0
 40
2.0
 40
3.0
 40
3.0
 40
3.0
 40
4.0
 40
4.0
 40
4.0
 40
4.0
 10
3.009635416666666
 20
-0.5488037109375
 30
0.0
 10
3.180167643229166
 20
0.26044921875
 30
0.0
 10
3.003089735243055
 20
0.9825412326388887
 30
0.0
 10
2.490459526909722
 20
1.278474934895833
 30
0.0
 10
1.754587131076388
 20
1.703599717881944
 30
0.0
 10
0.6066813151041666
 20
1.091750759548611
 30
0.0
 10
-0.0737250434027778
 20
-0.0864718967013889
 30
0.0
 10
-0.7544759114583333
 20
-1.265383572048611
 30
0.0
 10
-0.7096896701388889
 20
-2.564873589409721
 30
0.0
 10
0.0258382161458333
 20
-2.989998372395833
 30
0.0
 10
0.5215874565972222
 20
-3.275941297743055
 30
0.0
 10
1.204405381944444
 20
-3.09162868923611
 30
0.0
 10
1.805574544270833
 20
-2.580376519097221
 30
0.0
  0
SPLINE
  5
14D6
330
14CB
100
AcDbEntity
  8
LAYER_1
 62
     7
100
AcDbSpline
210
0.0
220
0.0
230
1.0
 70
     8
 71
     3
 72
    11
 73
     7
 74
     0
 42
0.0000000001
 43
0.0000000001
 40
0.0
 40
0.0
 40
0.0
 40
0.0
 40
1.0
 40
1.0
 40
1.0
 40
2.0
 40
2.0
 40
2.0
 40
2.0
 10
0.8554172092013889
 20
3.293855794270832
 30
0.0
 10
-0.0813042534722222
 20
3.834046766493055
 30
0.0
 10
-1.599557834201388
 20
2.957614474826388
 30
0.0
 10
-2.536279296874999
 20
1.334974500868055
 30
0.0
 10
-3.47300075954861
 20
-0.2869764539930555
 30
0.0
 10
-3.47300075954861
 20
-2.040530056423611
 30
0.0
 10
-2.536279296874999
 20
-2.581410047743055
 30
0.0
  0
LINE
  5
14D7
330
14CB
100
AcDbEntity
  8
LAYER_1
 62
     7
100
AcDbLine
 10
-1.936488172743055
 20
-2.92729763454861
 30
0.0
 11
-2.536279296874999
 21
-2.581410047743055
 31
0.0
  0
SPLINE
  5
14D8
330
14CB
100
AcDbEntity
  8
LAYER_1
 62
     7
100
AcDbSpline
210
0.0
220
0.0
230
1.0
 70
     8
 71
     3
 72
    11
 73
     7
 74
     0
 42
0.0000000001
 43
0.0000000001
 40
0.0
 40
0.0
 40
0.0
 40
0.0
 40
1.0
 40
1.0
 40
1.0
 40
2.0
 40
2.0
 40
2.0
 40
2.0
 10
1.840714518229166
 20
0.1539957682291666
 30
0.0
 10
1.518942599826388
 20
0.3400309244791666
 30
0.0
 10
0.9973551432291666
 20
0.0389295789930556
 30
0.0
 10
0.6748942057291666
 20
-0.5191758897569444
 30
0.0
 10
0.4041097005208333
 20
-0.9883978949652776
 30
0.0
 10
0.3610460069444444
 20
-1.490003797743055
 30
0.0
 10
0.5463921440972222
 20
-1.747696940104166
 30
0.0
  0
POLYLINE
  5
14D9
330
14CB
100
AcDbEntity
  8
LAYER_1
 62
     7
100
AcDb2dPolyline
 66
     1
 10
0.0
 20
0.0
 30
0.0
  0
VERTEX
  5
14DA
330
14D9
100
AcDbEntity
  8
LAYER_1
 62
     7
100
AcDbVertex
100
AcDb2dVertex
 10
3.219786241319444
 20
-0.5966905381944444
 30
0.0
  0
VERTEX
  5
14DB
330
14D9
100
AcDbEntity
  8
LAYER_1
 62
     7
100
AcDbVertex
100
AcDb2dVertex
 10
3.238734266493055
 20
-0.5632731119791666
 30
0.0
  0
VERTEX
  5
14DC
330
14D9
100
AcDbEntity
  8
LAYER_1
 62
     7
100
AcDbVertex
100
AcDb2dVertex
 10
2.752286783854166
 20
1.733227539062499
 30
0.0
  0
SEQEND
  5
14DD
330
14D9
100
AcDbEntity
  8
LAYER_1
 62
     7
  0
POLYLINE
  5
14DE
330
14CB
100
AcDbEntity
  8
LAYER_1
 62
     7
100
AcDb2dPolyline
 66
     1
 10
0.0
 20
0.0
 30
0.0
  0
VERTEX
  5
14DF
330
14DE
100
AcDbEntity
  8
LAYER_1
 62
     7
100
AcDbVertex
100
AcDb2dVertex
 10
2.752286783854166
 20
1.733227539062499
 30
0.0
  0
VERTEX
  5
14E0
330
14DE
100
AcDbEntity
  8
LAYER_1
 62
     7
100
AcDbVertex
100
AcDb2dVertex
 10
0.5212429470486111
 20
1.006312391493055
 30
0.0
  0
VERTEX
  5
14E1
330
14DE
100
AcDbEntity
  8
LAYER_1
 62
     7
100
AcDbVertex
100
AcDb2dVertex
 10
-0.7224365234375
 20
-1.14756130642361
 30
0.0
  0
VERTEX
  5
14E2
330
14DE
100
AcDbEntity
  8
LAYER_1
 62
     7
100
AcDbVertex
100
AcDb2dVertex
 10
-0.2366780598958333
 20
-3.444061957465277
 30
0.0
  0
VERTEX
  5
14E3
330
14DE
100
AcDbEntity
  8
LAYER_1
 62
     7
100
AcDbVertex
100
AcDb2dVertex
 10
1.913750542534722
 20
-2.744018554687499
 30
0.0
  0
SEQEND
  5
14E4
330
14DE
100
AcDbEntity
  8
LAYER_1
 62
     7
  0
LINE
  5
14E5
330
14CB
100
AcDbEntity
  8
LAYER_1
 62
     7
100
AcDbLine
 10
2.752286783854166
 20
1.733227539062499
 30
0.0
 11
1.253670247395833
 21
2.598635525173611
 31
0.0
  0
LINE
  5
14E6
330
14CB
100
AcDbEntity
  8
LAYER_1
 62
     7
100
AcDbLine
 10
0.5212429470486111
 20
1.006312391493055
 30
0.0
 11
-0.9784071180555555
 21
1.871031358506944
 31
0.0
  0
LINE
  5
14E7
330
14CB
100
AcDbEntity
  8
LAYER_1
 62
     7
100
AcDbLine
 10
1.454863823784721
 20
2.947279188368055
 30
0.0
 11
0.8554172092013889
 21
3.293855794270832
 31
0.0
  0
ENDBLK
  5
14E9
330
14CB
100
AcDbEntity
  8
LAYER_1
100
AcDbBlockEnd
  0
BLOCK
  5
153F
330
14EA
100
AcDbEntity
  8
LAYER_1
 62
     7
100
AcDbBlockBegin
  2
AI9-BLK3
 70
     0
 71
     1
 10
0.0
 20
0.0
 30
0.0
  3
AI9-BLK3
  1

  0
LINE
  5
14EB
330
14EA
100
AcDbEntity
  8
LAYER_1
 62
     7
100
AcDbLine
 10
-2.392963324652777
 20
-0.1169609917534722
 30
0.0
 11
-2.628607855902777
 21
0.0194647894965278
 31
0.0
  0
SPLINE
  5
14EC
330
14EA
100
AcDbEntity
  8
LAYER_1
 62
     7
100
AcDbSpline
210
0.0
220
0.0
230
1.0
 70
     8
 71
     3
 72
    17
 73
    13
 74
     0
 42
0.0000000001
 43
0.0000000001
 40
0.0
 40
0.0
 40
0.0
 40
0.0
 40
1.0
 40
1.0
 40
1.0
 40
2.0
 40
2.0
 40
2.0
 40
3.0
 40
3.0
 40
3.0
 40
4.0
 40
4.0
 40
4.0
 40
4.0
 10
-2.602080620659721
 20
2.588127983940971
 30
0.0
 10
-2.314587402343749
 20
3.866947428385416
 30
0.0
 10
-2.862529839409722
 20
4.721675618489582
 30
0.0
 10
-3.825778537326388
 20
4.497055392795138
 30
0.0
 10
-4.789543999565971
 20
4.273124186197915
 30
0.0
 10
-5.803607855902777
 20
3.054938422309027
 30
0.0
 10
-6.091101074218749
 20
1.776807996961805
 30
0.0
 10
-6.378938802083332
 20
0.4983330620659722
 30
0.0
 10
-5.830824110243055
 20
-0.3567396375868055
 30
0.0
 10
-4.867403157552082
 20
-0.1324639214409722
 30
0.0
 10
-4.527544487847221
 20
-0.0535712348090278
 30
0.0
 10
-4.165637207031249
 20
0.1552015516493055
 30
0.0
 10
-3.825778537326388
 20
0.4683607313368056
 30
0.0
  0
SPLINE
  5
14ED
330
14EA
100
AcDbEntity
  8
LAYER_1
 62
     7
100
AcDbSpline
210
0.0
220
0.0
230
1.0
 70
     8
 71
     3
 72
    14
 73
    10
 74
     0
 42
0.0000000001
 43
0.0000000001
 40
0.0
 40
0.0
 40
0.0
 40
0.0
 40
1.0
 40
1.0
 40
1.0
 40
2.0
 40
2.0
 40
2.0
 40
3.0
 40
3.0
 40
3.0
 40
3.0
 10
-0.6957370334201389
 20
1.328256564670138
 30
0.0
 10
-0.8330240885416666
 20
1.783353678385416
 30
0.0
 10
-1.319299316406249
 20
1.806780327690971
 30
0.0
 10
-1.781975640190972
 20
1.380966525607638
 30
0.0
 10
-2.244135199652777
 20
0.9551527235243055
 30
0.0
 10
-2.507857259114583
 20
0.2416734483506944
 30
0.0
 10
-2.370397949218749
 20
-0.2127346462673611
 30
0.0
 10
-2.286337619357638
 20
-0.4910983615451389
 30
0.0
 10
-2.064645724826388
 20
-0.618911404079861
 30
0.0
 10
-1.781975640190972
 20
-0.5520765516493055
 30
0.0
  0
SPLINE
  5
14EE
330
14EA
100
AcDbEntity
  8
LAYER_1
 62
     7
100
AcDbSpline
210
0.0
220
0.0
230
1.0
 70
     8
 71
     3
 72
    14
 73
    10
 74
     0
 42
0.0000000001
 43
0.0000000001
 40
0.0
 40
0.0
 40
0.0
 40
0.0
 40
1.0
 40
1.0
 40
1.0
 40
2.0
 40
2.0
 40
2.0
 40
3.0
 40
3.0
 40
3.0
 40
3.0
 10
-1.284159342447916
 20
1.668287489149305
 30
0.0
 10
-1.421790907118055
 20
2.123040093315971
 30
0.0
 10
-1.907721625434027
 20
2.146466742621527
 30
0.0
 10
-2.370397949218749
 20
1.720997450086805
 30
0.0
 10
-2.832902018229166
 20
1.295183648003472
 30
0.0
 10
-3.096107313368055
 20
0.5817043728298611
 30
0.0
 10
-2.958820258246527
 20
0.1269517686631944
 30
0.0
 10
-2.874759928385416
 20
-0.1514119466145833
 30
0.0
 10
-2.653584798177083
 20
-0.2788804796006944
 30
0.0
 10
-2.370397949218749
 20
-0.2127346462673611
 30
0.0
  0
SPLINE
  5
14EF
330
14EA
100
AcDbEntity
  8
LAYER_1
 62
     7
100
AcDbSpline
210
0.0
220
0.0
230
1.0
 70
     8
 71
     3
 72
    14
 73
    10
 74
     0
 42
0.0000000001
 43
0.0000000001
 40
0.0
 40
0.0
 40
0.0
 40
0.0
 40
1.0
 40
1.0
 40
1.0
 40
2.0
 40
2.0
 40
2.0
 40
3.0
 40
3.0
 40
3.0
 40
3.0
 10
-1.872581651475694
 20
2.00797390407986
 30
0.0
 10
-2.010213216145833
 20
2.462726508246527
 30
0.0
 10
-2.496488444010416
 20
2.486153157552083
 30
0.0
 10
-2.958820258246527
 20
2.06068386501736
 30
0.0
 10
-3.421152072482638
 20
1.634525553385416
 30
0.0
 10
-3.684701877170138
 20
0.9210462782118055
 30
0.0
 10
-3.547070312499999
 20
0.4662936740451389
 30
0.0
 10
-3.463009982638888
 20
0.1879299587673611
 30
0.0
 10
-3.241834852430555
 20
0.0611504448784722
 30
0.0
 10
-2.958820258246527
 20
0.1269517686631944
 30
0.0
  0
SPLINE
  5
14F0
330
14EA
100
AcDbEntity
  8
LAYER_1
 62
     7
100
AcDbSpline
210
0.0
220
0.0
230
1.0
 70
     8
 71
     3
 72
    14
 73
    10
 74
     0
 42
0.0000000001
 43
0.0000000001
 40
0.0
 40
0.0
 40
0.0
 40
0.0
 40
1.0
 40
1.0
 40
1.0
 40
2.0
 40
2.0
 40
2.0
 40
3.0
 40
3.0
 40
3.0
 40
3.0
 10
-2.461176215277777
 20
2.348004828559027
 30
0.0
 10
-2.598291015624999
 20
2.802757432725694
 30
0.0
 10
-3.085083007812499
 20
2.826184082031249
 30
0.0
 10
-3.547070312499999
 20
2.400370279947916
 30
0.0
 10
-4.009918891059027
 20
1.974900987413194
 30
0.0
 10
-4.273296440972221
 20
1.261421712239583
 30
0.0
 10
-4.135837131076388
 20
0.8066691080729166
 30
0.0
 10
-4.051604546440971
 20
0.528305392795139
 30
0.0
 10
-3.830084906684027
 20
0.3998033311631944
 30
0.0
 10
-3.547070312499999
 20
0.4662936740451389
 30
0.0
  0
SPLINE
  5
14F1
330
14EA
100
AcDbEntity
  8
LAYER_1
 62
     7
100
AcDbSpline
210
0.0
220
0.0
230
1.0
 70
     8
 71
     3
 72
    11
 73
     7
 74
     0
 42
0.0000000001
 43
0.0000000001
 40
0.0
 40
0.0
 40
0.0
 40
0.0
 40
1.0
 40
1.0
 40
1.0
 40
2.0
 40
2.0
 40
2.0
 40
2.0
 10
-1.025949435763888
 20
1.436777072482638
 30
0.0
 10
-1.305863444010416
 20
1.598007541232638
 30
0.0
 10
-1.760099283854166
 20
1.336180284288194
 30
0.0
 10
-2.040185546874999
 20
0.8507663302951387
 30
0.0
 10
-2.320271809895833
 20
0.3650078667534722
 30
0.0
 10
-2.320271809895833
 20
-0.1586466471354166
 30
0.0
 10
-2.040185546874999
 20
-0.32091064453125
 30
0.0
  0
SPLINE
  5
14F2
330
14EA
100
AcDbEntity
  8
LAYER_1
 62
     7
100
AcDbSpline
210
0.0
220
0.0
230
1.0
 70
     8
 71
     3
 72
    11
 73
     7
 74
     0
 42
0.0000000001
 43
0.0000000001
 40
0.0
 40
0.0
 40
0.0
 40
0.0
 40
1.0
 40
1.0
 40
1.0
 40
2.0
 40
2.0
 40
2.0
 40
2.0
 10
-1.614543999565972
 20
1.776118977864583
 30
0.0
 10
-1.894458007812499
 20
1.937693956163194
 30
0.0
 10
-2.34869384765625
 20
1.675522189670138
 30
0.0
 10
-2.628607855902777
 20
1.190797254774305
 30
0.0
 10
-2.90869411892361
 20
0.7050387912326388
 30
0.0
 10
-2.90869411892361
 20
0.18138427734375
 30
0.0
 10
-2.628607855902777
 20
0.0194647894965278
 30
0.0
  0
SPLINE
  5
14F3
330
14EA
100
AcDbEntity
  8
LAYER_1
 62
     7
100
AcDbSpline
210
0.0
220
0.0
230
1.0
 70
     8
 71
     3
 72
    11
 73
     7
 74
     0
 42
0.0000000001
 43
0.0000000001
 40
0.0
 40
0.0
 40
0.0
 40
0.0
 40
1.0
 40
1.0
 40
1.0
 40
2.0
 40
2.0
 40
2.0
 40
2.0
 10
-2.202794053819444
 20
2.115460883246527
 30
0.0
 10
-2.483052571614583
 20
2.277035861545138
 30
0.0
 10
-2.937116156684027
 20
2.015553114149305
 30
0.0
 10
-3.217030164930555
 20
1.529794650607638
 30
0.0
 10
-3.497288682725693
 20
1.045414225260416
 30
0.0
 10
-3.497288682725693
 20
0.5210706922743055
 30
0.0
 10
-3.217030164930555
 20
0.3588066948784721
 30
0.0
  0
SPLINE
  5
14F4
330
14EA
100
AcDbEntity
  8
LAYER_1
 62
     7
100
AcDbSpline
210
0.0
220
0.0
230
1.0
 70
     8
 71
     3
 72
     8
 73
     4
 74
     0
 42
0.0000000001
 43
0.0000000001
 40
0.0
 40
0.0
 40
0.0
 40
0.0
 40
1.0
 40
1.0
 40
1.0
 40
1.0
 10
-6.839375813802083
 20
3.376365831163194
 30
0.0
 10
-7.432104492187499
 20
2.350760904947916
 30
0.0
 10
-7.183024088541666
 20
1.045414225260416
 30
0.0
 10
-6.25422634548611
 20
0.3112643771701389
 30
0.0
  0
SPLINE
  5
14F5
330
14EA
100
AcDbEntity
  8
LAYER_1
 62
     7
100
AcDbSpline
210
0.0
220
0.0
230
1.0
 70
     8
 71
     3
 72
    11
 73
     7
 74
     0
 42
0.0000000001
 43
0.0000000001
 40
0.0
 40
0.0
 40
0.0
 40
0.0
 40
1.0
 40
1.0
 40
1.0
 40
2.0
 40
2.0
 40
2.0
 40
2.0
 10
-3.728971354166666
 20
3.252342393663194
 30
0.0
 10
-4.070380316840277
 20
3.448712836371527
 30
0.0
 10
-4.62331814236111
 20
3.129696994357638
 30
0.0
 10
-4.964210340711805
 20
2.538863118489583
 30
0.0
 10
-5.30544704861111
 20
1.948029242621527
 30
0.0
 10
-5.30544704861111
 20
1.309308539496527
 30
0.0
 10
-4.964210340711805
 20
1.112593587239583
 30
0.0
  0
SPLINE
  5
14F6
330
14EA
100
AcDbEntity
  8
LAYER_1
 62
     7
100
AcDbSpline
210
0.0
220
0.0
230
1.0
 70
     8
 71
     3
 72
    14
 73
    10
 74
     0
 42
0.0000000001
 43
0.0000000001
 40
0.0
 40
0.0
 40
0.0
 40
0.0
 40
1.0
 40
1.0
 40
1.0
 40
2.0
 40
2.0
 40
2.0
 40
3.0
 40
3.0
 40
3.0
 40
3.0
 10
-3.049598524305555
 20
2.688035753038194
 30
0.0
 10
-3.187057834201388
 20
3.142443847656249
 30
0.0
 10
-3.673333062065971
 20
3.165870496961805
 30
0.0
 10
-4.135837131076388
 20
2.740056694878472
 30
0.0
 10
-4.597996690538193
 20
2.314587402343749
 30
0.0
 10
-4.861718749999999
 20
1.600763617621527
 30
0.0
 10
-4.724431694878472
 20
1.146011013454861
 30
0.0
 10
-4.640199110243055
 20
0.8676472981770832
 30
0.0
 10
-4.41867947048611
 20
0.7401787651909722
 30
0.0
 10
-4.135837131076388
 20
0.8066691080729166
 30
0.0
  0
SPLINE
  5
14F7
330
14EA
100
AcDbEntity
  8
LAYER_1
 62
     7
100
AcDbSpline
210
0.0
220
0.0
230
1.0
 70
     8
 71
     3
 72
    11
 73
     7
 74
     0
 42
0.0000000001
 43
0.0000000001
 40
0.0
 40
0.0
 40
0.0
 40
0.0
 40
1.0
 40
1.0
 40
1.0
 40
2.0
 40
2.0
 40
2.0
 40
2.0
 10
-3.379810926649305
 20
2.795178222656249
 30
0.0
 10
-3.659897189670138
 20
2.957097710503472
 30
0.0
 10
-4.113788519965277
 20
2.694925944010416
 30
0.0
 10
-4.394047037760416
 20
2.209856499565971
 30
0.0
 10
-4.67413330078125
 20
1.724442545572916
 30
0.0
 10
-4.67413330078125
 20
1.200443522135416
 30
0.0
 10
-4.394047037760416
 20
1.038868543836805
 30
0.0
  0
LINE
  5
14F8
330
14EA
100
AcDbEntity
  8
LAYER_1
 62
     7
100
AcDbLine
 10
-5.63410915798611
 20
-0.0477145724826389
 30
0.0
 11
-6.25422634548611
 21
0.3112643771701389
 31
0.0
  0
LINE
  5
14F9
330
14EA
100
AcDbEntity
  8
LAYER_1
 62
     7
100
AcDbLine
 10
-4.964210340711805
 20
1.112593587239583
 30
0.0
 11
-4.504462348090277
 21
0.8473212348090276
 31
0.0
  0
LINE
  5
14FA
330
14EA
100
AcDbEntity
  8
LAYER_1
 62
     7
100
AcDbLine
 10
-4.15823025173611
 20
0.9020982530381942
 30
0.0
 11
-4.394047037760416
 21
1.038868543836805
 31
0.0
  0
SPLINE
  5
14FB
330
14EA
100
AcDbEntity
  8
LAYER_1
 62
     7
100
AcDbSpline
210
0.0
220
0.0
230
1.0
 70
     8
 71
     3
 72
    11
 73
     7
 74
     0
 42
0.0000000001
 43
0.0000000001
 40
0.0
 40
0.0
 40
0.0
 40
0.0
 40
1.0
 40
1.0
 40
1.0
 40
2.0
 40
2.0
 40
2.0
 40
2.0
 10
-2.791044108072916
 20
2.455836317274305
 30
0.0
 10
-3.071302625868055
 20
2.617066786024305
 30
0.0
 10
-3.525366210937499
 20
2.354895019531249
 30
0.0
 10
-3.805624728732638
 20
1.870170084635416
 30
0.0
 10
-4.085710991753471
 20
1.384756130642361
 30
0.0
 10
-4.085710991753471
 20
0.8604125976562498
 30
0.0
 10
-3.805624728732638
 20
0.6984931098090277
 30
0.0
  0
LINE
  5
14FC
330
14EA
100
AcDbEntity
  8
LAYER_1
 62
     7
100
AcDbLine
 10
-3.569635687934027
 20
0.56275634765625
 30
0.0
 11
-3.805624728732638
 21
0.6984931098090277
 31
0.0
  0
LINE
  5
14FD
330
14EA
100
AcDbEntity
  8
LAYER_1
 62
     7
100
AcDbLine
 10
-2.981041124131944
 20
0.2227254231770833
 30
0.0
 11
-3.217030164930555
 21
0.3588066948784721
 31
0.0
  0
LINE
  5
14FE
330
14EA
100
AcDbEntity
  8
LAYER_1
 62
     7
100
AcDbLine
 10
-2.555399576822916
 20
2.319410536024305
 30
0.0
 11
-2.791044108072916
 21
2.455836317274305
 31
0.0
  0
LINE
  5
14FF
330
14EA
100
AcDbEntity
  8
LAYER_1
 62
     7
100
AcDbLine
 10
-3.143994140624999
 20
2.659441460503471
 30
0.0
 11
-3.379810926649305
 21
2.795178222656249
 31
0.0
  0
SPLINE
  5
1500
330
14EA
100
AcDbEntity
  8
LAYER_1
 62
     7
100
AcDbSpline
210
0.0
220
0.0
230
1.0
 70
     8
 71
     3
 72
     8
 73
     4
 74
     0
 42
0.0000000001
 43
0.0000000001
 40
0.0
 40
0.0
 40
0.0
 40
0.0
 40
1.0
 40
1.0
 40
1.0
 40
1.0
 10
-3.662481011284721
 20
4.760260687934027
 30
0.0
 10
-4.765600585937499
 20
5.211568196614583
 30
0.0
 10
-6.03253445095486
 20
4.776797146267361
 30
0.0
 10
-6.626985677083332
 20
3.743957519531249
 30
0.0
  0
SPLINE
  5
1501
330
14EA
100
AcDbEntity
  8
LAYER_1
 62
     7
100
AcDbSpline
210
0.0
220
0.0
230
1.0
 70
     8
 71
     3
 72
     8
 73
     4
 74
     0
 42
0.0000000001
 43
0.0000000001
 40
0.0
 40
0.0
 40
0.0
 40
0.0
 40
1.0
 40
1.0
 40
1.0
 40
1.0
 10
-6.167065429687499
 20
3.478340657552083
 30
0.0
 10
-6.243546549479166
 20
3.359140353732638
 30
0.0
 10
-6.314515516493054
 20
3.236494954427083
 30
0.0
 10
-6.379283311631944
 20
3.110748969184027
 30
0.0
  0
LINE
  5
1502
330
14EA
100
AcDbEntity
  8
LAYER_1
 62
     7
100
AcDbLine
 10
-6.167065429687499
 20
3.478340657552083
 30
0.0
 11
-6.626985677083332
 21
3.743957519531249
 31
0.0
  0
LINE
  5
1503
330
14EA
100
AcDbEntity
  8
LAYER_1
 62
     7
100
AcDbLine
 10
-6.379283311631944
 20
3.110748969184027
 30
0.0
 11
-6.839375813802083
 21
3.376365831163194
 31
0.0
  0
LINE
  5
1504
330
14EA
100
AcDbEntity
  8
LAYER_1
 62
     7
100
AcDbLine
 10
-3.059244791666666
 20
4.411961534288193
 30
0.0
 11
-3.662481011284721
 21
4.760260687934027
 31
0.0
  0
LINE
  5
1505
330
14EA
100
AcDbEntity
  8
LAYER_1
 62
     7
100
AcDbLine
 10
-3.728971354166666
 20
3.252342393663194
 30
0.0
 11
-3.269051106770833
 21
2.986725531684027
 31
0.0
  0
SPLINE
  5
1506
330
14EA
100
AcDbEntity
  8
LAYER_1
 62
     7
100
AcDbSpline
210
0.0
220
0.0
230
1.0
 70
     8
 71
     3
 72
    14
 73
    10
 74
     0
 42
0.0000000001
 43
0.0000000001
 40
0.0
 40
0.0
 40
0.0
 40
0.0
 40
1.0
 40
1.0
 40
1.0
 40
2.0
 40
2.0
 40
2.0
 40
3.0
 40
3.0
 40
3.0
 40
3.0
 10
4.012158203124999
 20
-1.389579264322916
 30
0.0
 10
3.874698893229166
 20
-0.93482666015625
 30
0.0
 10
3.388251410590277
 20
-0.9117445203993053
 30
0.0
 10
2.925919596354166
 20
-1.336869303385416
 30
0.0
 10
2.463415527343749
 20
-1.762683105468749
 30
0.0
 10
2.200037977430555
 20
-2.476506890190972
 30
0.0
 10
2.337497287326388
 20
-2.931259494357638
 30
0.0
 10
2.421557617187499
 20
-3.209278700086805
 30
0.0
 10
2.642732747395833
 20
-3.336747233072916
 30
0.0
 10
2.925919596354166
 20
-3.270256890190971
 30
0.0
  0
SPLINE
  5
1507
330
14EA
100
AcDbEntity
  8
LAYER_1
 62
     7
100
AcDbSpline
210
0.0
220
0.0
230
1.0
 70
     8
 71
     3
 72
    14
 73
    10
 74
     0
 42
0.0000000001
 43
0.0000000001
 40
0.0
 40
0.0
 40
0.0
 40
0.0
 40
1.0
 40
1.0
 40
1.0
 40
2.0
 40
2.0
 40
2.0
 40
3.0
 40
3.0
 40
3.0
 40
3.0
 10
3.423735894097221
 20
-1.049548339843749
 30
0.0
 10
3.286448838975694
 20
-0.5951402452256945
 30
0.0
 10
2.799656846788194
 20
-0.5713690863715277
 30
0.0
 10
2.337497287326388
 20
-0.997182888454861
 30
0.0
 10
1.874993218315972
 20
-1.422652180989583
 30
0.0
 10
1.611443413628472
 20
-2.136475965711805
 30
0.0
 10
1.748902723524305
 20
-2.591228569878472
 30
0.0
 10
1.83279079861111
 20
-2.869247775607638
 30
0.0
 10
2.05448269314236
 20
-2.99706081814236
 30
0.0
 10
2.337497287326388
 20
-2.931259494357638
 30
0.0
  0
SPLINE
  5
1508
330
14EA
100
AcDbEntity
  8
LAYER_1
 62
     7
100
AcDbSpline
210
0.0
220
0.0
230
1.0
 70
     8
 71
     3
 72
    14
 73
    10
 74
     0
 42
0.0000000001
 43
0.0000000001
 40
0.0
 40
0.0
 40
0.0
 40
0.0
 40
1.0
 40
1.0
 40
1.0
 40
2.0
 40
2.0
 40
2.0
 40
3.0
 40
3.0
 40
3.0
 40
3.0
 10
2.835141330295138
 20
-0.7095174153645833
 30
0.0
 10
2.69785427517361
 20
-0.2551093207465278
 30
0.0
 10
2.211406792534722
 20
-0.2316826714409722
 30
0.0
 10
1.748902723524305
 20
-0.6578409830729166
 30
0.0
 10
1.286398654513888
 20
-1.082965766059027
 30
0.0
 10
1.023193359375
 20
-1.796789550781249
 30
0.0
 10
1.160480414496527
 20
-2.251197645399305
 30
0.0
 10
1.244540744357638
 20
-2.529561360677083
 30
0.0
 10
1.465888129340277
 20
-2.657374403211805
 30
0.0
 10
1.748902723524305
 20
-2.591228569878472
 30
0.0
  0
SPLINE
  5
1509
330
14EA
100
AcDbEntity
  8
LAYER_1
 62
     7
100
AcDbSpline
210
0.0
220
0.0
230
1.0
 70
     8
 71
     3
 72
    14
 73
    10
 74
     0
 42
0.0000000001
 43
0.0000000001
 40
0.0
 40
0.0
 40
0.0
 40
0.0
 40
1.0
 40
1.0
 40
1.0
 40
2.0
 40
2.0
 40
2.0
 40
3.0
 40
3.0
 40
3.0
 40
3.0
 10
2.246546766493055
 20
-0.3701755099826389
 30
0.0
 10
2.109087456597221
 20
0.0842325846354167
 30
0.0
 10
1.622984483506944
 20
0.1080037434895833
 30
0.0
 10
1.160480414496527
 20
-0.3174655490451388
 30
0.0
 10
0.6981486002604166
 20
-0.7432793511284723
 30
0.0
 10
0.4344265407986111
 20
-1.456758626302083
 30
0.0
 10
0.57205810546875
 20
-1.911855740017361
 30
0.0
 10
0.6562906901041666
 20
-2.189530436197916
 30
0.0
 10
0.8776380750868055
 20
-2.31803249782986
 30
0.0
 10
1.160480414496527
 20
-2.251197645399305
 30
0.0
  0
SPLINE
  5
150A
330
14EA
100
AcDbEntity
  8
LAYER_1
 62
     7
100
AcDbSpline
210
0.0
220
0.0
230
1.0
 70
     8
 71
     3
 72
    14
 73
    10
 74
     0
 42
0.0000000001
 43
0.0000000001
 40
0.0
 40
0.0
 40
0.0
 40
0.0
 40
1.0
 40
1.0
 40
1.0
 40
2.0
 40
2.0
 40
2.0
 40
3.0
 40
3.0
 40
3.0
 40
3.0
 10
1.658124457465277
 20
-0.0301445855034722
 30
0.0
 10
1.520665147569444
 20
0.4239189995659722
 30
0.0
 10
1.034562174479166
 20
0.4476901584201389
 30
0.0
 10
0.57205810546875
 20
0.0222208658854167
 30
0.0
 10
0.1097262912326389
 20
-0.4035929361979166
 30
0.0
 10
-0.1538235134548611
 20
-1.117416720920138
 30
0.0
 10
-0.0165364583333333
 20
-1.572169325086805
 30
0.0
 10
0.0675238715277778
 20
-1.850188530815971
 30
0.0
 10
0.2890435112847222
 20
-1.977657063802083
 30
0.0
 10
0.57205810546875
 20
-1.911855740017361
 30
0.0
  0
SPLINE
  5
150B
330
14EA
100
AcDbEntity
  8
LAYER_1
 62
     7
100
AcDbSpline
210
0.0
220
0.0
230
1.0
 70
     8
 71
     3
 72
    11
 73
     7
 74
     0
 42
0.0000000001
 43
0.0000000001
 40
0.0
 40
0.0
 40
0.0
 40
0.0
 40
1.0
 40
1.0
 40
1.0
 40
2.0
 40
2.0
 40
2.0
 40
2.0
 10
3.093523491753471
 20
-0.9420613606770832
 30
0.0
 10
2.813437228732638
 20
-0.7808308919270833
 30
0.0
 10
2.359201388888888
 20
-1.042313639322916
 30
0.0
 10
2.079115125868055
 20
-1.52738308376736
 30
0.0
 10
1.799028862847221
 20
-2.012797037760416
 30
0.0
 10
1.799028862847221
 20
-2.536796061197916
 30
0.0
 10
2.079115125868055
 20
-2.698715549045138
 30
0.0
  0
SPLINE
  5
150C
330
14EA
100
AcDbEntity
  8
LAYER_1
 62
     7
100
AcDbSpline
210
0.0
220
0.0
230
1.0
 70
     8
 71
     3
 72
    11
 73
     7
 74
     0
 42
0.0000000001
 43
0.0000000001
 40
0.0
 40
0.0
 40
0.0
 40
0.0
 40
1.0
 40
1.0
 40
1.0
 40
2.0
 40
2.0
 40
2.0
 40
2.0
 10
2.504928927951388
 20
-0.6020304361979166
 30
0.0
 10
2.224842664930555
 20
-0.4404554578993056
 30
0.0
 10
1.770606825086805
 20
-0.7026272243923611
 30
0.0
 10
1.490692816840277
 20
-1.187352159288194
 30
0.0
 10
1.210606553819444
 20
-1.67311062282986
 30
0.0
 10
1.210606553819444
 20
-2.197454155815972
 30
0.0
 10
1.490692816840277
 20
-2.359029134114583
 30
0.0
  0
SPLINE
  5
150D
330
14EA
100
AcDbEntity
  8
LAYER_1
 62
     7
100
AcDbSpline
210
0.0
220
0.0
230
1.0
 70
     8
 71
     3
 72
    11
 73
     7
 74
     0
 42
0.0000000001
 43
0.0000000001
 40
0.0
 40
0.0
 40
0.0
 40
0.0
 40
1.0
 40
1.0
 40
1.0
 40
2.0
 40
2.0
 40
2.0
 40
2.0
 10
1.916334364149305
 20
-0.2623440212673611
 30
0.0
 10
1.636420355902777
 20
-0.10076904296875
 30
0.0
 10
1.182356770833333
 20
-0.3625962999131944
 30
0.0
 10
0.9020982530381942
 20
-0.8476657443576389
 30
0.0
 10
0.6221842447916666
 20
-1.333424207899305
 30
0.0
 10
0.6221842447916666
 20
-1.857078721788194
 30
0.0
 10
0.9020982530381942
 20
-2.019342719184027
 30
0.0
  0
SPLINE
  5
150E
330
14EA
100
AcDbEntity
  8
LAYER_1
 62
     7
100
AcDbSpline
210
0.0
220
0.0
230
1.0
 70
     8
 71
     3
 72
    11
 73
     7
 74
     0
 42
0.0000000001
 43
0.0000000001
 40
0.0
 40
0.0
 40
0.0
 40
0.0
 40
1.0
 40
1.0
 40
1.0
 40
2.0
 40
2.0
 40
2.0
 40
2.0
 10
1.328084309895833
 20
0.0773423936631945
 30
0.0
 10
1.047998046874999
 20
0.2392618815104166
 30
0.0
 10
0.59376220703125
 20
-0.02325439453125
 30
0.0
 10
0.3138481987847222
 20
-0.5083238389756945
 30
0.0
 10
0.0335896809895833
 20
-0.9937377929687498
 30
0.0
 10
0.0335896809895833
 20
-1.517736816406249
 30
0.0
 10
0.3138481987847222
 20
-1.679311794704861
 30
0.0
  0
SPLINE
  5
150F
330
14EA
100
AcDbEntity
  8
LAYER_1
 62
     7
100
AcDbSpline
210
0.0
220
0.0
230
1.0
 70
     8
 71
     3
 72
    14
 73
    10
 74
     0
 42
0.0000000001
 43
0.0000000001
 40
0.0
 40
0.0
 40
0.0
 40
0.0
 40
1.0
 40
1.0
 40
1.0
 40
2.0
 40
2.0
 40
2.0
 40
3.0
 40
3.0
 40
3.0
 40
3.0
 10
-0.1073147243923611
 20
0.9896036783854166
 30
0.0
 10
-0.2447740342881944
 20
1.444011773003472
 30
0.0
 10
-0.7310492621527777
 20
1.467093912760416
 30
0.0
 10
-1.193381076388888
 20
1.041280110677083
 30
0.0
 10
-1.655885145399305
 20
0.6158108181423611
 30
0.0
 10
-1.919262695312499
 20
-0.0980129665798611
 30
0.0
 10
-1.781975640190972
 20
-0.5520765516493055
 30
0.0
 10
-1.697743055555555
 20
-0.8307847764756942
 30
0.0
 10
-1.47622341579861
 20
-0.9585978190104166
 30
0.0
 10
-1.193381076388888
 20
-0.8924519856770832
 30
0.0
  0
SPLINE
  5
1510
330
14EA
100
AcDbEntity
  8
LAYER_1
 62
     7
100
AcDbSpline
210
0.0
220
0.0
230
1.0
 70
     8
 71
     3
 72
    11
 73
     7
 74
     0
 42
0.0000000001
 43
0.0000000001
 40
0.0
 40
0.0
 40
0.0
 40
0.0
 40
1.0
 40
1.0
 40
1.0
 40
2.0
 40
2.0
 40
2.0
 40
2.0
 10
0.1512396918402778
 20
0.7570597330729166
 30
0.0
 10
-0.1290188259548611
 20
0.9182902018229166
 30
0.0
 10
-0.5830824110243055
 20
0.6561184353298611
 30
0.0
 10
-0.8633409288194442
 20
0.1710489908854166
 30
0.0
 10
-1.143254937065972
 20
-0.3143649631076388
 30
0.0
 10
-1.143254937065972
 20
-0.8383639865451387
 30
0.0
 10
-0.8633409288194442
 20
-1.00028347439236
 30
0.0
  0
SPLINE
  5
1511
330
14EA
100
AcDbEntity
  8
LAYER_1
 62
     7
100
AcDbSpline
210
0.0
220
0.0
230
1.0
 70
     8
 71
     3
 72
    14
 73
    10
 74
     0
 42
0.0000000001
 43
0.0000000001
 40
0.0
 40
0.0
 40
0.0
 40
0.0
 40
1.0
 40
1.0
 40
1.0
 40
2.0
 40
2.0
 40
2.0
 40
3.0
 40
3.0
 40
3.0
 40
3.0
 10
1.0697021484375
 20
0.3095418294270833
 30
0.0
 10
0.9322428385416666
 20
0.7639499240451389
 30
0.0
 10
0.4459676106770833
 20
0.7877210828993056
 30
0.0
 10
-0.0165364583333333
 20
0.3619072808159722
 30
0.0
 10
-0.4788682725694445
 20
-0.0639065212673611
 30
0.0
 10
-0.7422458224826389
 20
-0.7777303059895833
 30
0.0
 10
-0.6049587673611111
 20
-1.232482910156249
 30
0.0
 10
-0.5208984375
 20
-1.510157606336805
 30
0.0
 10
-0.2995510525173611
 20
-1.638315158420138
 30
0.0
 10
-0.0165364583333333
 20
-1.572169325086805
 30
0.0
  0
SPLINE
  5
1512
330
14EA
100
AcDbEntity
  8
LAYER_1
 62
     7
100
AcDbSpline
210
0.0
220
0.0
230
1.0
 70
     8
 71
     3
 72
    14
 73
    10
 74
     0
 42
0.0000000001
 43
0.0000000001
 40
0.0
 40
0.0
 40
0.0
 40
0.0
 40
1.0
 40
1.0
 40
1.0
 40
2.0
 40
2.0
 40
2.0
 40
3.0
 40
3.0
 40
3.0
 40
3.0
 10
0.4811075846354166
 20
0.6492282443576389
 30
0.0
 10
0.3438205295138888
 20
1.103636338975694
 30
0.0
 10
-0.142626953125
 20
1.127062988281249
 30
0.0
 10
-0.6049587673611111
 20
0.7012491861979166
 30
0.0
 10
-1.067462836371527
 20
0.2757798936631945
 30
0.0
 10
-1.331012641059027
 20
-0.4376993815104166
 30
0.0
 10
-1.193381076388888
 20
-0.8924519856770832
 30
0.0
 10
-1.109148491753472
 20
-1.17081570095486
 30
0.0
 10
-0.8879733615451389
 20
-1.298284233940972
 30
0.0
 10
-0.6049587673611111
 20
-1.232482910156249
 30
0.0
  0
SPLINE
  5
1513
330
14EA
100
AcDbEntity
  8
LAYER_1
 62
     7
100
AcDbSpline
210
0.0
220
0.0
230
1.0
 70
     8
 71
     3
 72
    11
 73
     7
 74
     0
 42
0.0000000001
 43
0.0000000001
 40
0.0
 40
0.0
 40
0.0
 40
0.0
 40
1.0
 40
1.0
 40
1.0
 40
2.0
 40
2.0
 40
2.0
 40
2.0
 10
0.7396620008680555
 20
0.41702880859375
 30
0.0
 10
0.4594034830729166
 20
0.57825927734375
 30
0.0
 10
0.0051676432291667
 20
0.3171210394965278
 30
0.0
 10
-0.2747463650173611
 20
-0.1686374240451389
 30
0.0
 10
-0.5548326280381945
 20
-0.6533623589409722
 30
0.0
 10
-0.5548326280381945
 20
-1.177705891927083
 30
0.0
 10
-0.2747463650173611
 20
-1.339625379774305
 30
0.0
  0
SPLINE
  5
1514
330
14EA
100
AcDbEntity
  8
LAYER_1
 62
     7
100
AcDbSpline
210
0.0
220
0.0
230
1.0
 70
     8
 71
     3
 72
    11
 73
     7
 74
     0
 42
0.0000000001
 43
0.0000000001
 40
0.0
 40
0.0
 40
0.0
 40
0.0
 40
1.0
 40
1.0
 40
1.0
 40
2.0
 40
2.0
 40
2.0
 40
2.0
 10
3.681945800781249
 20
-1.282092285156249
 30
0.0
 10
3.40168728298611
 20
-1.120172797309027
 30
0.0
 10
2.947795952690972
 20
-1.382344563802083
 30
0.0
 10
2.667709689670138
 20
-1.867414008246527
 30
0.0
 10
2.387623426649305
 20
-2.352483452690972
 30
0.0
 10
2.387623426649305
 20
-2.876826985677082
 30
0.0
 10
2.667709689670138
 20
-3.038746473524305
 30
0.0
  0
LINE
  5
1515
330
14EA
100
AcDbEntity
  8
LAYER_1
 62
     7
100
AcDbLine
 10
-0.0389295789930556
 20
-1.476051161024305
 30
0.0
 11
-0.2747463650173611
 21
-1.339625379774305
 31
0.0
  0
LINE
  5
1516
330
14EA
100
AcDbEntity
  8
LAYER_1
 62
     7
100
AcDbLine
 10
-0.6275241427951388
 20
-1.136364746093749
 30
0.0
 11
-0.8633409288194442
 21
-1.00028347439236
 31
0.0
  0
LINE
  5
1517
330
14EA
100
AcDbEntity
  8
LAYER_1
 62
     7
100
AcDbLine
 10
2.31493191189236
 20
-2.834796820746527
 30
0.0
 11
2.079115125868055
 21
-2.698715549045138
 31
0.0
  0
LINE
  5
1518
330
14EA
100
AcDbEntity
  8
LAYER_1
 62
     7
100
AcDbLine
 10
0.5496649848090277
 20
-1.815393066406249
 30
0.0
 11
0.3138481987847222
 21
-1.679311794704861
 31
0.0
  0
LINE
  5
1519
330
14EA
100
AcDbEntity
  8
LAYER_1
 62
     7
100
AcDbLine
 10
1.138087293836805
 20
-2.155423990885416
 30
0.0
 11
0.9020982530381942
 21
-2.019342719184027
 31
0.0
  0
LINE
  5
151A
330
14EA
100
AcDbEntity
  8
LAYER_1
 62
     7
100
AcDbLine
 10
1.726337348090277
 20
-2.495110405815971
 30
0.0
 11
1.490692816840277
 21
-2.359029134114583
 31
0.0
  0
SPLINE
  5
151B
330
14EA
100
AcDbEntity
  8
LAYER_1
 62
     7
100
AcDbSpline
210
0.0
220
0.0
230
1.0
 70
     8
 71
     3
 72
    14
 73
    10
 74
     0
 42
0.0000000001
 43
0.0000000001
 40
0.0
 40
0.0
 40
0.0
 40
0.0
 40
1.0
 40
1.0
 40
1.0
 40
2.0
 40
2.0
 40
2.0
 40
3.0
 40
3.0
 40
3.0
 40
3.0
 10
6.366019694010415
 20
-2.748669433593749
 30
0.0
 10
6.228560384114582
 20
-2.293572319878471
 30
0.0
 10
5.742285156249999
 20
-2.270490180121527
 30
0.0
 10
5.279781087239582
 20
-2.695959472656249
 30
0.0
 10
4.817449273003472
 20
-3.121428765190971
 30
0.0
 10
4.553727213541666
 20
-3.835597059461805
 30
0.0
 10
4.691358778211805
 20
-4.289660644531249
 30
0.0
 10
4.775419108072916
 20
-4.568368869357638
 30
0.0
 10
4.99693874782986
 20
-4.695837402343749
 30
0.0
 10
5.279781087239582
 20
-4.629691569010415
 30
0.0
  0
SPLINE
  5
151C
330
14EA
100
AcDbEntity
  8
LAYER_1
 62
     7
100
AcDbSpline
210
0.0
220
0.0
230
1.0
 70
     8
 71
     3
 72
    11
 73
     7
 74
     0
 42
0.0000000001
 43
0.0000000001
 40
0.0
 40
0.0
 40
0.0
 40
0.0
 40
1.0
 40
1.0
 40
1.0
 40
2.0
 40
2.0
 40
2.0
 40
2.0
 10
6.624229600694444
 20
-2.980524359809027
 30
0.0
 10
6.343971082899305
 20
-2.818949381510416
 30
0.0
 10
5.88990749782986
 20
-3.08077663845486
 30
0.0
 10
5.609993489583333
 20
-3.566190592447916
 30
0.0
 10
5.329734971788194
 20
-4.05126003689236
 30
0.0
 10
5.329734971788194
 20
-4.575603569878471
 30
0.0
 10
5.609993489583333
 20
-4.737178548177082
 30
0.0
  0
ELLIPSE
  5
151D
330
14EA
100
AcDbEntity
  8
LAYER_1
 62
     7
100
AcDbEllipse
 10
6.411408827039929
 20
-4.028694661458333
 30
0.0
 11
0.5072041829427075
 21
0.8783270941840273
 31
0.0
210
0.0
220
0.0
230
0.9999999999999998
 40
0.5773516222272687
 41
0.0
 42
6.283185307179586
  0
SPLINE
  5
151E
330
14EA
100
AcDbEntity
  8
LAYER_1
 62
     7
100
AcDbSpline
210
0.0
220
0.0
230
1.0
 70
     8
 71
     3
 72
    14
 73
    10
 74
     0
 42
0.0000000001
 43
0.0000000001
 40
0.0
 40
0.0
 40
0.0
 40
0.0
 40
1.0
 40
1.0
 40
1.0
 40
2.0
 40
2.0
 40
2.0
 40
3.0
 40
3.0
 40
3.0
 40
3.0
 10
6.978385416666665
 20
-3.194809299045138
 30
0.0
 10
6.898459201388888
 20
-2.691136338975694
 30
0.0
 10
6.448185221354165
 20
-2.580548773871527
 30
0.0
 10
5.972589789496526
 20
-2.94745144314236
 30
0.0
 10
5.496822102864582
 20
-3.314698621961805
 30
0.0
 10
5.175739203559027
 20
-4.02025417751736
 30
0.0
 10
5.255493164062499
 20
-4.523238118489582
 30
0.0
 10
5.317504882812499
 20
-4.911155870225694
 30
0.0
 10
5.604998101128471
 20
-5.077898491753471
 30
0.0
 10
5.972589789496526
 20
-4.936994086371527
 30
0.0
  0
LINE
  5
151F
330
14EA
100
AcDbEntity
  8
LAYER_1
 62
     7
100
AcDbLine
 10
5.904204644097221
 20
-4.90702175564236
 30
0.0
 11
5.609993489583333
 21
-4.737178548177082
 31
0.0
  0
LINE
  5
1520
330
14EA
100
AcDbEntity
  8
LAYER_1
 62
     7
100
AcDbLine
 10
5.094607204861111
 20
-2.097201877170138
 30
0.0
 11
4.85896267361111
 21
-1.961120605468749
 31
0.0
  0
SPLINE
  5
1521
330
14EA
100
AcDbEntity
  8
LAYER_1
 62
     7
100
AcDbSpline
210
0.0
220
0.0
230
1.0
 70
     8
 71
     3
 72
    14
 73
    10
 74
     0
 42
0.0000000001
 43
0.0000000001
 40
0.0
 40
0.0
 40
0.0
 40
0.0
 40
1.0
 40
1.0
 40
1.0
 40
2.0
 40
2.0
 40
2.0
 40
3.0
 40
3.0
 40
3.0
 40
3.0
 10
5.777597384982638
 20
-2.408293999565971
 30
0.0
 10
5.639793565538194
 20
-1.953885904947916
 30
0.0
 10
5.153690592447916
 20
-1.930803765190971
 30
0.0
 10
4.691358778211805
 20
-2.356273057725694
 30
0.0
 10
4.229199218749999
 20
-2.782086859809027
 30
0.0
 10
3.965477159288194
 20
-3.495566134982638
 30
0.0
 10
4.102764214409721
 20
-3.949974229600694
 30
0.0
 10
4.186824544270833
 20
-4.228337944878472
 30
0.0
 10
4.408344184027777
 20
-4.355806477864582
 30
0.0
 10
4.691358778211805
 20
-4.289660644531249
 30
0.0
  0
SPLINE
  5
1522
330
14EA
100
AcDbEntity
  8
LAYER_1
 62
     7
100
AcDbSpline
210
0.0
220
0.0
230
1.0
 70
     8
 71
     3
 72
    14
 73
    10
 74
     0
 42
0.0000000001
 43
0.0000000001
 40
0.0
 40
0.0
 40
0.0
 40
0.0
 40
1.0
 40
1.0
 40
1.0
 40
2.0
 40
2.0
 40
2.0
 40
3.0
 40
3.0
 40
3.0
 40
3.0
 10
5.189002821180555
 20
-2.068952094184027
 30
0.0
 10
5.051715766059027
 20
-1.614543999565972
 30
0.0
 10
4.565268283420138
 20
-1.590772840711805
 30
0.0
 10
4.102764214409721
 20
-2.016586642795138
 30
0.0
 10
3.640260145399305
 20
-2.442400444878471
 30
0.0
 10
3.377227105034721
 20
-3.156224229600694
 30
0.0
 10
3.514341905381944
 20
-3.610632324218749
 30
0.0
 10
3.59857449001736
 20
-3.888651529947916
 30
0.0
 10
3.819921874999999
 20
-4.016120062934027
 30
0.0
 10
4.102764214409721
 20
-3.949974229600694
 30
0.0
  0
SPLINE
  5
1523
330
14EA
100
AcDbEntity
  8
LAYER_1
 62
     7
100
AcDbSpline
210
0.0
220
0.0
230
1.0
 70
     8
 71
     3
 72
    11
 73
     7
 74
     0
 42
0.0000000001
 43
0.0000000001
 40
0.0
 40
0.0
 40
0.0
 40
0.0
 40
1.0
 40
1.0
 40
1.0
 40
2.0
 40
2.0
 40
2.0
 40
2.0
 10
6.035807291666666
 20
-2.640837944878471
 30
0.0
 10
5.755721028645832
 20
-2.47926296657986
 30
0.0
 10
5.301829698350694
 20
-2.741090223524305
 30
0.0
 10
5.021571180555555
 20
-3.226159667968749
 30
0.0
 10
4.741484917534721
 20
-3.711573621961805
 30
0.0
 10
4.741484917534721
 20
-4.235917154947916
 30
0.0
 10
5.021571180555555
 20
-4.397836642795138
 30
0.0
  0
SPLINE
  5
1524
330
14EA
100
AcDbEntity
  8
LAYER_1
 62
     7
100
AcDbSpline
210
0.0
220
0.0
230
1.0
 70
     8
 71
     3
 72
    11
 73
     7
 74
     0
 42
0.0000000001
 43
0.0000000001
 40
0.0
 40
0.0
 40
0.0
 40
0.0
 40
1.0
 40
1.0
 40
1.0
 40
2.0
 40
2.0
 40
2.0
 40
2.0
 10
5.447212727864583
 20
-2.300807020399305
 30
0.0
 10
5.167298719618054
 20
-2.139232042100694
 30
0.0
 10
4.713062879774304
 20
-2.40174831814236
 30
0.0
 10
4.432976616753471
 20
-2.886128743489583
 30
0.0
 10
4.153062608506943
 20
-3.371887207031249
 30
0.0
 10
4.153062608506943
 20
-3.89623074001736
 30
0.0
 10
4.432976616753471
 20
-4.058150227864582
 30
0.0
  0
SPLINE
  5
1525
330
14EA
100
AcDbEntity
  8
LAYER_1
 62
     7
100
AcDbSpline
210
0.0
220
0.0
230
1.0
 70
     8
 71
     3
 72
    14
 73
    10
 74
     0
 42
0.0000000001
 43
0.0000000001
 40
0.0
 40
0.0
 40
0.0
 40
0.0
 40
1.0
 40
1.0
 40
1.0
 40
2.0
 40
2.0
 40
2.0
 40
3.0
 40
3.0
 40
3.0
 40
3.0
 10
4.600408257378472
 20
-1.729265679253471
 30
0.0
 10
4.463121202256943
 20
-1.274168565538194
 30
0.0
 10
3.97684597439236
 20
-1.251086425781249
 30
0.0
 10
3.514341905381944
 20
-1.676900227864583
 30
0.0
 10
3.051837836371527
 20
-2.102369520399305
 30
0.0
 10
2.788460286458333
 20
-2.815848795572916
 30
0.0
 10
2.925919596354166
 20
-3.270256890190971
 30
0.0
 10
3.010152180989583
 20
-3.54896511501736
 30
0.0
 10
3.231327311197916
 20
-3.676433648003472
 30
0.0
 10
3.514341905381944
 20
-3.610632324218749
 30
0.0
  0
SPLINE
  5
1526
330
14EA
100
AcDbEntity
  8
LAYER_1
 62
     7
100
AcDbSpline
210
0.0
220
0.0
230
1.0
 70
     8
 71
     3
 72
    11
 73
     7
 74
     0
 42
0.0000000001
 43
0.0000000001
 40
0.0
 40
0.0
 40
0.0
 40
0.0
 40
1.0
 40
1.0
 40
1.0
 40
2.0
 40
2.0
 40
2.0
 40
2.0
 10
4.85896267361111
 20
-1.961120605468749
 30
0.0
 10
4.578704155815971
 20
-1.799545627170138
 30
0.0
 10
4.124468315972221
 20
-2.062061903211805
 30
0.0
 10
3.844382052951388
 20
-2.547131347656249
 30
0.0
 10
3.56446804470486
 20
-3.032545301649305
 30
0.0
 10
3.56446804470486
 20
-3.555855305989583
 30
0.0
 10
3.844382052951388
 20
-3.717774793836805
 30
0.0
  0
SPLINE
  5
1527
330
14EA
100
AcDbEntity
  8
LAYER_1
 62
     7
100
AcDbSpline
210
0.0
220
0.0
230
1.0
 70
     8
 71
     3
 72
    11
 73
     7
 74
     0
 42
0.0000000001
 43
0.0000000001
 40
0.0
 40
0.0
 40
0.0
 40
0.0
 40
1.0
 40
1.0
 40
1.0
 40
2.0
 40
2.0
 40
2.0
 40
2.0
 10
4.270368109809027
 20
-1.621089680989583
 30
0.0
 10
3.990281846788194
 20
-1.460203721788194
 30
0.0
 10
3.536218261718749
 20
-1.721341959635416
 30
0.0
 10
3.256304253472221
 20
-2.206755913628472
 30
0.0
 10
2.976045735677082
 20
-2.692169867621527
 30
0.0
 10
2.976045735677082
 20
-3.216168891059027
 30
0.0
 10
3.256304253472221
 20
-3.37843288845486
 30
0.0
  0
LINE
  5
1528
330
14EA
100
AcDbEntity
  8
LAYER_1
 62
     7
100
AcDbLine
 10
3.492293294270833
 20
-3.514514160156249
 30
0.0
 11
3.256304253472221
 21
-3.37843288845486
 31
0.0
  0
LINE
  5
1529
330
14EA
100
AcDbEntity
  8
LAYER_1
 62
     7
100
AcDbLine
 10
2.903698730468749
 20
-3.175172254774305
 30
0.0
 11
2.667709689670138
 21
-3.038746473524305
 31
0.0
  0
LINE
  5
152A
330
14EA
100
AcDbEntity
  8
LAYER_1
 62
     7
100
AcDbLine
 10
4.668965657552083
 20
-4.19388699001736
 30
0.0
 11
4.432976616753471
 21
-4.058150227864582
 31
0.0
  0
LINE
  5
152B
330
14EA
100
AcDbEntity
  8
LAYER_1
 62
     7
100
AcDbLine
 10
4.080371093749999
 20
-3.854200575086805
 30
0.0
 11
3.844382052951388
 21
-3.717774793836805
 31
0.0
  0
LINE
  5
152C
330
14EA
100
AcDbEntity
  8
LAYER_1
 62
     7
100
AcDbLine
 10
3.91793484157986
 20
-1.417829047309027
 30
0.0
 11
3.681945800781249
 21
-1.282092285156249
 31
0.0
  0
LINE
  5
152D
330
14EA
100
AcDbEntity
  8
LAYER_1
 62
     7
100
AcDbLine
 10
3.329340277777777
 20
-1.078142632378472
 30
0.0
 11
3.093523491753471
 21
-0.9420613606770832
 31
0.0
  0
LINE
  5
152E
330
14EA
100
AcDbEntity
  8
LAYER_1
 62
     7
100
AcDbLine
 10
4.506184895833333
 20
-1.757859971788194
 30
0.0
 11
4.270368109809027
 21
-1.621089680989583
 31
0.0
  0
LINE
  5
152F
330
14EA
100
AcDbEntity
  8
LAYER_1
 62
     7
100
AcDbLine
 10
5.257387966579861
 20
-4.533573404947916
 30
0.0
 11
5.021571180555555
 21
-4.397836642795138
 31
0.0
  0
LINE
  5
1530
330
14EA
100
AcDbEntity
  8
LAYER_1
 62
     7
100
AcDbLine
 10
6.918613009982638
 20
-3.150367567274305
 30
0.0
 11
6.624229600694444
 21
-2.980524359809027
 31
0.0
  0
LINE
  5
1531
330
14EA
100
AcDbEntity
  8
LAYER_1
 62
     7
100
AcDbLine
 10
6.271796332465276
 20
-2.777263726128472
 30
0.0
 11
6.035807291666666
 21
-2.640837944878471
 31
0.0
  0
LINE
  5
1532
330
14EA
100
AcDbEntity
  8
LAYER_1
 62
     7
100
AcDbLine
 10
5.683201768663193
 20
-2.436888292100694
 30
0.0
 11
5.447212727864583
 21
-2.300807020399305
 31
0.0
  0
SPLINE
  5
1533
330
14EA
100
AcDbEntity
  8
LAYER_1
 62
     7
100
AcDbSpline
210
0.0
220
0.0
230
1.0
 70
     8
 71
     3
 72
    11
 73
     7
 74
     0
 42
0.0000000001
 43
0.0000000001
 40
0.0
 40
0.0
 40
0.0
 40
0.0
 40
1.0
 40
1.0
 40
1.0
 40
2.0
 40
2.0
 40
2.0
 40
2.0
 10
-0.4375271267361111
 20
1.09640163845486
 30
0.0
 10
-0.7174411349826389
 20
1.258321126302083
 30
0.0
 10
-1.171504720052083
 20
0.9961493598090276
 30
0.0
 10
-1.451935492621527
 20
0.5110799153645833
 30
0.0
 10
-1.731849500868055
 20
0.0260104709201389
 30
0.0
 10
-1.731849500868055
 20
-0.4983330620659722
 30
0.0
 10
-1.451935492621527
 20
-0.6599080403645833
 30
0.0
  0
LINE
  5
1534
330
14EA
100
AcDbEntity
  8
LAYER_1
 62
     7
100
AcDbLine
 10
-1.21577419704861
 20
-0.7963338216145833
 30
0.0
 11
-1.451935492621527
 21
-0.6599080403645833
 31
0.0
  0
LINE
  5
1535
330
14EA
100
AcDbEntity
  8
LAYER_1
 62
     7
100
AcDbLine
 10
-1.804196506076388
 20
-0.4566474066840278
 30
0.0
 11
-2.040185546874999
 21
-0.32091064453125
 31
0.0
  0
LINE
  5
1536
330
14EA
100
AcDbEntity
  8
LAYER_1
 62
     7
100
AcDbLine
 10
-1.378382703993055
 20
1.640037706163194
 30
0.0
 11
-1.614543999565972
 21
1.776118977864583
 31
0.0
  0
LINE
  5
1537
330
14EA
100
AcDbEntity
  8
LAYER_1
 62
     7
100
AcDbLine
 10
-1.966977267795138
 20
1.979724121093749
 30
0.0
 11
-2.202794053819444
 21
2.115460883246527
 31
0.0
  0
LINE
  5
1538
330
14EA
100
AcDbEntity
  8
LAYER_1
 62
     7
100
AcDbLine
 10
-0.2015380859375
 20
0.9603203667534721
 30
0.0
 11
-0.4375271267361111
 21
1.09640163845486
 31
0.0
  0
LINE
  5
1539
330
14EA
100
AcDbEntity
  8
LAYER_1
 62
     7
100
AcDbLine
 10
-0.7901326497395833
 20
1.300695800781249
 30
0.0
 11
-1.025949435763888
 21
1.436777072482638
 31
0.0
  0
LINE
  5
153A
330
14EA
100
AcDbEntity
  8
LAYER_1
 62
     7
100
AcDbLine
 10
0.9753065321180555
 20
0.2809475368923611
 30
0.0
 11
0.7396620008680555
 21
0.41702880859375
 31
0.0
  0
LINE
  5
153B
330
14EA
100
AcDbEntity
  8
LAYER_1
 62
     7
100
AcDbLine
 10
0.3868842230902778
 20
0.6202894422743056
 30
0.0
 11
0.1512396918402778
 21
0.7570597330729166
 31
0.0
  0
LINE
  5
153C
330
14EA
100
AcDbEntity
  8
LAYER_1
 62
     7
100
AcDbLine
 10
1.563728841145833
 20
-0.0594278971354167
 30
0.0
 11
1.328084309895833
 21
0.0773423936631945
 31
0.0
  0
LINE
  5
153D
330
14EA
100
AcDbEntity
  8
LAYER_1
 62
     7
100
AcDbLine
 10
2.152323404947916
 20
-0.3980807834201388
 30
0.0
 11
1.916334364149305
 21
-0.2623440212673611
 31
0.0
  0
LINE
  5
153E
330
14EA
100
AcDbEntity
  8
LAYER_1
 62
     7
100
AcDbLine
 10
2.740745713975694
 20
-0.7384562174479166
 30
0.0
 11
2.504928927951388
 21
-0.6020304361979166
 31
0.0
  0
ENDBLK
  5
1540
330
14EA
100
AcDbEntity
  8
LAYER_1
100
AcDbBlockEnd
  0
BLOCK
  5
1548
330
1541
100
AcDbEntity
  8
LAYER_1
 62
     7
100
AcDbBlockBegin
  2
AI9-BLK4
 70
     0
 71
     1
 10
0.0
 20
0.0
 30
0.0
  3
AI9-BLK4
  1

  0
SPLINE
  5
1542
330
1541
100
AcDbEntity
  8
LAYER_1
 62
     7
100
AcDbSpline
210
0.0
220
0.0
230
1.0
 70
     8
 71
     3
 72
    11
 73
     7
 74
     0
 42
0.0000000001
 43
0.0000000001
 40
0.0
 40
0.0
 40
0.0
 40
0.0
 40
1.0
 40
1.0
 40
1.0
 40
2.0
 40
2.0
 40
2.0
 40
2.0
 10
1.333079698350694
 20
2.965882703993055
 30
0.0
 10
0.4397664388020833
 20
3.481268988715277
 30
0.0
 10
-1.008379448784722
 20
2.645144314236111
 30
0.0
 10
-1.901692708333333
 20
1.098296440972222
 30
0.0
 10
-2.795005967881944
 20
-0.4492404513888889
 30
0.0
 10
-2.795005967881944
 20
-2.121489800347222
 30
0.0
 10
-1.901692708333333
 20
-2.636876085069444
 30
0.0
  0
ELLIPSE
  5
1543
330
1541
100
AcDbEntity
  8
LAYER_1
 62
     7
100
AcDbEllipse
 10
0.2843065049913194
 20
-0.1641587999131944
 30
0.0
 11
-1.617386203342013
 21
-2.801379394531249
 31
0.0
210
0.0
220
0.0
230
1.0
 40
0.5773518854995171
 41
0.0
 42
6.283185307179586
  0
LINE
  5
1544
330
1541
100
AcDbEntity
  8
LAYER_1
 62
     7
100
AcDbLine
 10
-1.333079698350694
 20
-2.965538194444444
 30
0.0
 11
-1.901692708333333
 21
-2.636876085069444
 31
0.0
  0
ELLIPSE
  5
1545
330
1541
100
AcDbEntity
  8
LAYER_1
 62
     7
100
AcDbEllipse
 10
0.284478759765625
 20
-0.1641587999131944
 30
0.0
 11
-0.7139099121093749
 21
-1.236617024739583
 31
0.0
210
0.0
220
0.0
230
0.9999999999999998
 40
0.5773295429148322
 41
0.0
 42
6.283185307179586
  0
SPLINE
  5
1546
330
1541
100
AcDbEntity
  8
LAYER_1
 62
     7
100
AcDbSpline
210
0.0
220
0.0
230
1.0
 70
     8
 71
     3
 72
    11
 73
     7
 74
     0
 42
0.0000000001
 43
0.0000000001
 40
0.0
 40
0.0
 40
0.0
 40
0.0
 40
1.0
 40
1.0
 40
1.0
 40
2.0
 40
2.0
 40
2.0
 40
2.0
 10
-0.6549126519097222
 20
-1.134125434027777
 30
0.0
 10
-0.1360812717013889
 20
-1.071080186631944
 30
0.0
 10
0.4502739800347222
 20
-0.4385606553819444
 30
0.0
 10
0.6549126519097222
 20
0.2787082248263888
 30
0.0
 10
0.7486192491319443
 20
0.60771484375
 30
0.0
 10
0.7486192491319443
 20
0.9136393229166666
 30
0.0
 10
0.6549126519097222
 20
1.134125434027777
 30
0.0
  0
LINE
  5
1547
330
1541
100
AcDbEntity
  8
LAYER_1
 62
     7
100
AcDbLine
 10
1.901692708333333
 20
2.637220594618055
 30
0.0
 11
1.333079698350694
 21
2.965882703993055
 31
0.0
  0
ENDBLK
  5
1549
330
1541
100
AcDbEntity
  8
LAYER_1
100
AcDbBlockEnd
  0
BLOCK
  5
1567
330
154A
100
AcDbEntity
  8
LAYER_1
 62
     7
100
AcDbBlockBegin
  2
AI9-BLK5
 70
     0
 71
     1
 10
0.0
 20
0.0
 30
0.0
  3
AI9-BLK5
  1

  0
LINE
  5
154B
330
154A
100
AcDbEntity
  8
LAYER_1
 62
     7
100
AcDbLine
 10
-0.7226087782118055
 20
-1.14756130642361
 30
0.0
 11
-2.221569824218749
 21
-0.2818088107638888
 31
0.0
  0
LINE
  5
154C
330
154A
100
AcDbEntity
  8
LAYER_1
 62
     7
100
AcDbLine
 10
-0.2365058051215278
 20
-3.444061957465277
 30
0.0
 11
-1.735466851128472
 21
-2.578309461805555
 31
0.0
  0
SPLINE
  5
154D
330
154A
100
AcDbEntity
  8
LAYER_1
 62
     7
100
AcDbSpline
210
0.0
220
0.0
230
1.0
 70
     8
 71
     3
 72
    14
 73
    10
 74
     0
 42
0.0000000001
 43
0.0000000001
 40
0.0
 40
0.0
 40
0.0
 40
0.0
 40
1.0
 40
1.0
 40
1.0
 40
2.0
 40
2.0
 40
2.0
 40
3.0
 40
3.0
 40
3.0
 40
3.0
 10
2.055171712239582
 20
2.135959201388888
 30
0.0
 10
1.672421603732638
 20
3.378949652777777
 30
0.0
 10
0.3341742621527777
 20
3.435449218749999
 30
0.0
 10
-0.9337931315104166
 20
2.261016167534722
 30
0.0
 10
-2.201932779947916
 20
1.087272135416666
 30
0.0
 10
-2.919718424479166
 20
-0.8722981770833332
 30
0.0
 10
-2.536968315972222
 20
-2.115633138020833
 30
0.0
 10
-2.304596625434027
 20
-2.869764539930555
 30
0.0
 10
-1.703082953559027
 20
-3.217374674479166
 30
0.0
 10
-0.9337931315104166
 20
-3.041330295138888
 30
0.0
  0
POLYLINE
  5
154E
330
154A
100
AcDbEntity
  8
LAYER_1
 62
     7
100
AcDb2dPolyline
 66
     1
 10
0.0
 20
0.0
 30
0.0
  0
VERTEX
  5
154F
330
154E
100
AcDbEntity
  8
LAYER_1
 62
     7
100
AcDbVertex
100
AcDb2dVertex
 10
1.253497992621527
 20
2.598635525173611
 30
0.0
  0
VERTEX
  5
1550
330
154E
100
AcDbEntity
  8
LAYER_1
 62
     7
100
AcDbVertex
100
AcDb2dVertex
 10
-0.9784071180555555
 20
1.871375868055555
 30
0.0
  0
VERTEX
  5
1551
330
154E
100
AcDbEntity
  8
LAYER_1
 62
     7
100
AcDbVertex
100
AcDb2dVertex
 10
-2.221569824218749
 20
-0.2818088107638888
 30
0.0
  0
VERTEX
  5
1552
330
154E
100
AcDbEntity
  8
LAYER_1
 62
     7
100
AcDbVertex
100
AcDb2dVertex
 10
-1.735466851128472
 20
-2.578309461805555
 30
0.0
  0
SEQEND
  5
1553
330
154E
100
AcDbEntity
  8
LAYER_1
 62
     7
  0
ELLIPSE
  5
1554
330
154A
100
AcDbEntity
  8
LAYER_1
 62
     7
100
AcDbEllipse
 10
1.257976616753472
 20
-0.8554172092013889
 30
0.0
 11
-1.232310655381943
 21
-2.134236653645833
 31
0.0
210
0.0
220
0.0
230
1.0
 40
0.6240959172180497
 41
0.0
 42
6.283185307179586
  0
SPLINE
  5
1555
330
154A
100
AcDbEntity
  8
LAYER_1
 62
     7
100
AcDbSpline
210
0.0
220
0.0
230
1.0
 70
     8
 71
     3
 72
    11
 73
     7
 74
     0
 42
0.0000000001
 43
0.0000000001
 40
0.0
 40
0.0
 40
0.0
 40
0.0
 40
1.0
 40
1.0
 40
1.0
 40
2.0
 40
2.0
 40
2.0
 40
2.0
 10
0.8554172092013889
 20
3.293855794270832
 30
0.0
 10
-0.0813042534722222
 20
3.834391276041666
 30
0.0
 10
-1.599730088975694
 20
2.957614474826388
 30
0.0
 10
-2.536279296874999
 20
1.335319010416666
 30
0.0
 10
-3.47300075954861
 20
-0.2866319444444444
 30
0.0
 10
-3.47300075954861
 20
-2.040530056423611
 30
0.0
 10
-2.536279296874999
 20
-2.581065538194444
 30
0.0
  0
LINE
  5
1556
330
154A
100
AcDbEntity
  8
LAYER_1
 62
     7
100
AcDbLine
 10
-1.93666042751736
 20
-2.92729763454861
 30
0.0
 11
-2.536279296874999
 21
-2.581065538194444
 31
0.0
  0
SPLINE
  5
1557
330
154A
100
AcDbEntity
  8
LAYER_1
 62
     7
100
AcDbSpline
210
0.0
220
0.0
230
1.0
 70
     8
 71
     3
 72
    11
 73
     7
 74
     0
 42
0.0000000001
 43
0.0000000001
 40
0.0
 40
0.0
 40
0.0
 40
0.0
 40
1.0
 40
1.0
 40
1.0
 40
2.0
 40
2.0
 40
2.0
 40
2.0
 10
0.4433837890625
 20
-1.472778320312499
 30
0.0
 10
0.8764322916666666
 20
-1.245746527777777
 30
0.0
 10
1.238339572482638
 20
-0.6073703342013889
 30
0.0
 10
1.251775444878472
 20
-0.0471978081597222
 30
0.0
 10
1.252808973524305
 20
0.0
 30
0.0
 10
1.251086425781249
 20
0.0458197699652778
 30
0.0
 10
1.247296820746527
 20
0.0906060112847222
 30
0.0
  0
SPLINE
  5
1558
330
154A
100
AcDbEntity
  8
LAYER_1
 62
     7
100
AcDbSpline
210
0.0
220
0.0
230
1.0
 70
     8
 71
     3
 72
    11
 73
     7
 74
     0
 42
0.0000000001
 43
0.0000000001
 40
0.0
 40
0.0
 40
0.0
 40
0.0
 40
1.0
 40
1.0
 40
1.0
 40
2.0
 40
2.0
 40
2.0
 40
2.0
 10
0.4986775716145833
 20
-1.664670138888888
 30
0.0
 10
0.9138115776909721
 20
-1.589567057291666
 30
0.0
 10
1.350994194878472
 20
-1.042830403645833
 30
0.0
 10
1.475706651475694
 20
-0.4433837890625
 30
0.0
 10
1.524627007378471
 20
-0.2067057291666666
 30
0.0
 10
1.519114854600694
 20
0.0130913628472222
 30
0.0
 10
1.459859212239583
 20
0.1839680989583333
 30
0.0
  0
SPLINE
  5
1559
330
154A
100
AcDbEntity
  8
LAYER_1
 62
     7
100
AcDbSpline
210
0.0
220
0.0
230
1.0
 70
     8
 71
     3
 72
    11
 73
     7
 74
     0
 42
0.0000000001
 43
0.0000000001
 40
0.0
 40
0.0
 40
0.0
 40
0.0
 40
1.0
 40
1.0
 40
1.0
 40
2.0
 40
2.0
 40
2.0
 40
2.0
 10
0.5848049587673611
 20
-1.793516710069444
 30
0.0
 10
0.9474012586805555
 20
-1.890668402777777
 30
0.0
 10
1.433504231770833
 20
-1.486214192708333
 30
0.0
 10
1.67001003689236
 20
-0.8898681640625
 30
0.0
 10
1.840886773003472
 20
-0.4592312282986111
 30
0.0
 10
1.840197753906249
 20
-0.0285942925347222
 30
0.0
 10
1.667942979600694
 20
0.2073947482638889
 30
0.0
  0
ELLIPSE
  5
155A
330
154A
100
AcDbEntity
  8
LAYER_1
 62
     7
100
AcDbEllipse
 10
1.257976616753472
 20
-0.8555894639756942
 30
0.0
 11
-0.58291015625
 21
-1.00958523220486
 31
0.0
210
0.0
220
0.0
230
0.9999999999999998
 40
0.5773138265890456
 41
0.0
 42
6.283185307179586
  0
POLYLINE
  5
155B
330
154A
100
AcDbEntity
  8
LAYER_1
 62
     7
100
AcDb2dPolyline
 66
     1
 10
0.0
 20
0.0
 30
0.0
  0
VERTEX
  5
155C
330
155B
100
AcDbEntity
  8
LAYER_1
 62
     7
100
AcDbVertex
100
AcDb2dVertex
 10
2.752459038628471
 20
1.733227539062499
 30
0.0
  0
VERTEX
  5
155D
330
155B
100
AcDbEntity
  8
LAYER_1
 62
     7
100
AcDbVertex
100
AcDb2dVertex
 10
0.5208984375
 20
1.006312391493055
 30
0.0
  0
VERTEX
  5
155E
330
155B
100
AcDbEntity
  8
LAYER_1
 62
     7
100
AcDbVertex
100
AcDb2dVertex
 10
-0.7226087782118055
 20
-1.14756130642361
 30
0.0
  0
VERTEX
  5
155F
330
155B
100
AcDbEntity
  8
LAYER_1
 62
     7
100
AcDbVertex
100
AcDb2dVertex
 10
-0.2365058051215278
 20
-3.444061957465277
 30
0.0
  0
VERTEX
  5
1560
330
155B
100
AcDbEntity
  8
LAYER_1
 62
     7
100
AcDbVertex
100
AcDb2dVertex
 10
1.99557156032986
 20
-2.716802300347222
 30
0.0
  0
VERTEX
  5
1561
330
155B
100
AcDbEntity
  8
LAYER_1
 62
     7
100
AcDbVertex
100
AcDb2dVertex
 10
3.238734266493055
 20
-0.5632731119791666
 30
0.0
  0
VERTEX
  5
1562
330
155B
100
AcDbEntity
  8
LAYER_1
 62
     7
100
AcDbVertex
100
AcDb2dVertex
 10
2.752459038628471
 20
1.733227539062499
 30
0.0
  0
SEQEND
  5
1563
330
155B
100
AcDbEntity
  8
LAYER_1
 62
     7
  0
LINE
  5
1564
330
154A
100
AcDbEntity
  8
LAYER_1
 62
     7
100
AcDbLine
 10
2.752459038628471
 20
1.733227539062499
 30
0.0
 11
1.253497992621527
 21
2.598635525173611
 31
0.0
  0
LINE
  5
1565
330
154A
100
AcDbEntity
  8
LAYER_1
 62
     7
100
AcDbLine
 10
0.5208984375
 20
1.006312391493055
 30
0.0
 11
-0.9784071180555555
 21
1.871375868055555
 31
0.0
  0
LINE
  5
1566
330
154A
100
AcDbEntity
  8
LAYER_1
 62
     7
100
AcDbLine
 10
1.455036078559027
 20
2.947623697916666
 30
0.0
 11
0.8554172092013889
 21
3.293855794270832
 31
0.0
  0
ENDBLK
  5
1568
330
154A
100
AcDbEntity
  8
LAYER_1
100
AcDbBlockEnd
  0
BLOCK
  5
18EF
330
156B
100
AcDbEntity
  8
0
100
AcDbBlockBegin
  2
9960-install 2
 70
     0
 10
0.0
 20
0.0
 30
0.0
  3
9960-install 2
  1

  0
LWPOLYLINE
  5
156C
102
{ACAD_REACTORS
330
156E
102
}
330
156B
100
AcDbEntity
  8
LAYER_1
  6
Continuous
370
     0
100
AcDbPolyline
 90
       27
 70
   128
 43
0.0
 10
204.8199065228107
 20
64.56264595594749
 10
204.8199065228107
 20
67.8370369607218
 10
122.1814957209479
 20
38.62703134730722
 10
108.0855585683386
 20
34.39434934740976
 42
-0.0759961235285631
 10
103.0620497375419
 20
34.36256360005436
 42
0.1787735933531205
 10
95.29927034407103
 20
33.07454461732627
 42
-0.119649123120017
 10
86.51668592759794
 20
29.92190778349195
 42
0.0961655772647923
 10
75.81769985039771
 20
27.98793181177678
 42
-0.0759616522121682
 10
66.14168372691048
 20
25.34218639910605
 42
-0.1274952002081808
 10
57.9396309202227
 20
24.3450963055974
 42
-0.1147358191293051
 10
44.52206926442907
 20
27.70178742118498
 10
31.39148784362066
 20
34.74478562120223
 10
1.887762696855887
 20
51.61442682617317
 10
1.913773167776028
 20
27.04159425238842
 10
5.023316353539911
 20
23.61062365777039
 10
5.001098411074469
 20
46.5598925958154
 10
31.39148784362066
 20
31.47039461642791
 10
44.52206926442907
 20
24.42739641641066
 42
0.1147358191293051
 10
57.9396309202227
 20
21.07070530082308
 42
0.1274952002081808
 10
66.14168372691048
 20
22.06779539433174
 42
0.0759616522121682
 10
75.81769985039771
 20
24.71354080700246
 42
-0.0961655772647923
 10
86.51668592759794
 20
26.64751677871763
 42
0.119649123120017
 10
95.29927034407103
 20
29.80015361255195
 42
-0.1787735933531205
 10
103.0620497375419
 20
31.08817259528005
 42
0.0759961235285631
 10
108.0855585683386
 20
31.11995834263544
 10
122.1814957209479
 20
35.35264034253291
 10
204.8199065228107
 20
64.56264595594749
  0
LWPOLYLINE
  5
156D
102
{ACAD_REACTORS
330
156F
102
}
330
156B
100
AcDbEntity
  8
LAYER_1
  6
Continuous
370
     0
100
AcDbPolyline
 90
       19
 70
   129
 43
0.0
 10
57.9396309202227
 20
24.3450963055974
 42
-0.114735819129305
 10
44.52206926442907
 20
27.70178742118498
 10
31.39148784362066
 20
34.74478562120223
 10
1.887762696855887
 20
51.61442682617317
 10
14.89368717602256
 20
56.14627768337803
 42
0.0217809751690602
 10
25.07011509880391
 20
48.94542689133036
 10
60.00772933097046
 20
28.27356039822177
 42
0.2345576864528138
 10
65.78308740388712
 20
27.71683296766622
 10
187.8652135974635
 20
70.83254748589538
 10
188.9755678726371
 20
71.92119765950647
 10
189.0313784195121
 20
77.24490371419395
 10
204.8199065228107
 20
67.8370369607218
 10
122.1814957209479
 20
38.62703134730722
 10
108.0855585683386
 20
34.39434934740976
 42
-0.0759961235285631
 10
103.0620497375419
 20
34.36256360005436
 42
0.1787735933531205
 10
95.29927034407103
 20
33.07454461732627
 42
-0.119649123120017
 10
86.51668592759794
 20
29.92190778349195
 42
0.0961655772647923
 10
75.81769985039771
 20
27.98793181177678
 42
-0.0759616522121682
 10
66.14168372691048
 20
25.34218639910605
 42
-0.1274952002081808
  0
HATCH
  5
156E
330
156B
100
AcDbEntity
  8
LAYER_1
  6
Continuous
370
     0
100
AcDbHatch
 10
0.0
 20
0.0
 30
0.0
210
0.0
220
0.0
230
1.0
  2
ANSI31
 70
     0
 71
     1
 91
        1
 92
        1
 93
       26
 72
     1
 10
204.8199065228107
 20
64.56264595594749
 11
204.8199065228107
 21
67.8370369607218
 72
     1
 10
204.8199065228107
 20
67.8370369607218
 11
122.1814957209479
 21
38.62703134730722
 72
     1
 10
122.1814957209479
 20
38.62703134730722
 11
108.0855585683386
 21
34.39434934740976
 72
     2
 10
105.4698443384793
 20
50.80855768082725
 40
16.62131752133748
 50
80.94566450112901
 51
98.32927859952397
 73
     0
 72
     2
 10
100.9242815058695
 20
23.20989782294501
 40
11.35570371875974
 50
79.1490333485205
 51
119.6926193628027
 73
     1
 72
     2
 10
84.4150263296923
 20
49.58622692968432
 40
19.77630957860382
 50
56.60775068785856
 51
83.89956753222355
 73
     0
 72
     2
 10
86.14842153631206
 20
1.398167943214161
 40
28.52611703575759
 50
89.26030656487862
 51
111.2322687333458
 73
     1
 72
     2
 10
62.32243207812681
 20
58.32637623108272
 40
33.20456989675682
 50
66.0193544499979
 51
83.39511364931272
 73
     0
 72
     2
 10
60.11728615657992
 20
40.66527269859514
 40
16.46482128135605
 50
68.53732040440504
 51
97.60027175681473
 73
     0
 72
     2
 10
58.4485233184741
 20
54.87434657532574
 40
30.53349134155324
 50
90.95497551761583
 51
117.1360038006691
 73
     0
 72
     1
 10
44.52206926442907
 20
27.70178742118498
 11
31.39148784362066
 21
34.74478562120223
 72
     1
 10
31.39148784362066
 20
34.74478562120223
 11
1.887762696855887
 21
51.61442682617317
 72
     1
 10
1.887762696855887
 20
51.61442682617317
 11
1.913773167776028
 21
27.04159425238842
 72
     1
 10
1.913773167776028
 20
27.04159425238842
 11
5.023316353539911
 21
23.61062365777039
 72
     1
 10
5.023316353539911
 20
23.61062365777039
 11
5.001098411074469
 21
46.5598925958154
 72
     1
 10
5.001098411074469
 20
46.5598925958154
 11
31.39148784362066
 21
31.47039461642791
 72
     1
 10
31.39148784362066
 20
31.47039461642791
 11
44.52206926442907
 21
24.42739641641066
 72
     2
 10
58.4485233184741
 20
51.59995557055143
 40
30.53349134155324
 50
242.8639961993309
 51
269.0450244823842
 73
     1
 72
     2
 10
60.11728615657992
 20
37.39088169382083
 40
16.46482128135605
 50
262.3997282431853
 51
291.462679595595
 73
     1
 72
     2
 10
62.32243207812681
 20
55.0519852263084
 40
33.20456989675682
 50
276.6048863506873
 51
293.9806455500021
 73
     1
 72
     2
 10
86.14842153631206
 20
-1.876223061560153
 40
28.52611703575758
 50
248.7677312666542
 51
270.7396934351214
 73
     0
 72
     2
 10
84.4150263296923
 20
46.31183592491001
 40
19.77630957860382
 50
276.1004324677764
 51
303.3922493121414
 73
     1
 72
     2
 10
100.9242815058695
 20
19.93550681817069
 40
11.35570371875973
 50
240.3073806371972
 51
280.8509666514794
 73
     0
 72
     2
 10
105.4698443384793
 20
47.53416667605293
 40
16.62131752133749
 50
261.670721400476
 51
279.0543354988709
 73
     1
 72
     1
 10
108.0855585683386
 20
31.11995834263544
 11
122.1814957209479
 21
35.35264034253291
 72
     1
 10
122.1814957209479
 20
35.35264034253291
 11
204.8199065228107
 21
64.56264595594749
 97
        1
330
156C
 75
     0
 76
     1
 52
0.0
 41
17.0
 77
     0
 78
     1
 53
45.0
 43
-5.244446233265648
 44
-83.90253823459067
 45
-1.502601910021413
 46
1.502601910021413
 79
     0
 98
        1
 10
-5.223431150800365
 20
-222.8480544819342
  0
HATCH
  5
156F
330
156B
100
AcDbEntity
  8
LAYER_1
  6
Continuous
370
     0
100
AcDbHatch
 10
0.0
 20
0.0
 30
0.0
210
0.0
220
0.0
230
1.0
  2
AR-SAND
 70
     0
 71
     1
 91
        1
 92
        1
 93
       19
 72
     2
 10
58.4485233184741
 20
54.87434657532574
 40
30.53349134155324
 50
90.95497551761583
 51
117.1360038006691
 73
     0
 72
     1
 10
44.52206926442907
 20
27.70178742118498
 11
31.39148784362066
 21
34.74478562120223
 72
     1
 10
31.39148784362066
 20
34.74478562120223
 11
1.887762696855887
 21
51.61442682617317
 72
     1
 10
1.887762696855887
 20
51.61442682617317
 11
14.89368717602256
 21
56.14627768337803
 72
     2
 10
102.5933840281741
 20
169.2945290076572
 40
143.1564305426114
 50
232.2212148135328
 51
237.2122574485152
 73
     1
 72
     1
 10
25.07011509880391
 20
48.94542689133036
 11
60.00772933097046
 21
28.27356039822177
 72
     2
 10
63.45614226815929
 20
33.81211692542306
 40
6.524351323340514
 50
238.0928044896061
 51
290.8949342238886
 73
     1
 72
     1
 10
65.78308740388712
 20
27.71683296766622
 11
187.8652135974635
 21
70.83254748589538
 72
     1
 10
187.8652135974635
 20
70.83254748589538
 11
188.9755678726371
 21
71.92119765950647
 72
     1
 10
188.9755678726371
 20
71.92119765950647
 11
189.0313784195121
 21
77.24490371419395
 72
     1
 10
189.0313784195121
 20
77.24490371419395
 11
204.8199065228107
 21
67.8370369607218
 72
     1
 10
204.8199065228107
 20
67.8370369607218
 11
122.1814957209479
 21
38.62703134730722
 72
     1
 10
122.1814957209479
 20
38.62703134730722
 11
108.0855585683386
 21
34.39434934740976
 72
     2
 10
105.4698443384793
 20
50.80855768082725
 40
16.62131752133748
 50
80.94566450112901
 51
98.32927859952397
 73
     0
 72
     2
 10
100.9242815058695
 20
23.20989782294501
 40
11.35570371875974
 50
79.1490333485205
 51
119.6926193628027
 73
     1
 72
     2
 10
84.4150263296923
 20
49.58622692968432
 40
19.77630957860382
 50
56.60775068785856
 51
83.89956753222355
 73
     0
 72
     2
 10
86.14842153631206
 20
1.398167943214161
 40
28.52611703575759
 50
89.26030656487862
 51
111.2322687333458
 73
     1
 72
     2
 10
62.32243207812681
 20
58.32637623108272
 40
33.20456989675682
 50
66.0193544499979
 51
83.39511364931272
 73
     0
 72
     2
 10
60.11728615657992
 20
40.66527269859514
 40
16.46482128135605
 50
68.53732040440504
 51
97.60027175681473
 73
     0
 97
        1
330
156D
 75
     0
 76
     1
 52
0.0
 41
2.0
 77
     0
 78
     4
 53
37.5
 43
-5.223431150800365
 44
-222.8480544819342
 45
-0.1259867162192163
 46
3.853647538026317
 79
     6
 49
0.0
 49
-3.04
 49
0.0
 49
-3.399999999999999
 49
0.0
 49
-3.25
 53
7.499999999999999
 43
-5.223431150800365
 44
-222.8480544819342
 45
3.539553410535454
 46
5.64429213045948
 79
     6
 49
0.0
 49
-1.639999999999999
 49
0.0
 49
-2.74
 49
0.0
 49
-1.05
 53
327.5
 43
-7.683431150800365
 44
-222.8480544819342
 45
6.22828372350299
 46
0.011318107073929
 79
     6
 49
0.0
 49
-1.0
 49
0.0
 49
-3.6
 49
0.0
 49
-4.7
 53
317.5
 43
-7.683431150800365
 44
-222.8480544819342
 45
6.012253209144586
 46
1.755351129868498
 79
     6
 49
0.0
 49
-0.5
 49
0.0
 49
-2.359999999999999
 49
0.0
 49
-2.7
 98
        1
 10
-5.223431150800365
 20
-222.8480544819342
  0
SPLINE
  5
1570
330
156B
100
AcDbEntity
  8
0
 62
     7
370
     0
100
AcDbSpline
210
0.0
220
0.0
230
1.0
 70
    11
 71
     3
 72
    35
 73
    31
 74
     0
 42
0.0000000001
 43
0.0000000001
 40
0.0
 40
0.0
 40
0.0
 40
0.0
 40
1.0
 40
1.0
 40
1.0
 40
2.0
 40
2.0
 40
2.0
 40
3.0
 40
3.0
 40
3.0
 40
4.0
 40
4.0
 40
4.0
 40
5.0
 40
5.0
 40
5.0
 40
6.0
 40
6.0
 40
6.0
 40
7.0
 40
7.0
 40
7.0
 40
8.0
 40
8.0
 40
8.0
 40
9.0
 40
9.0
 40
9.0
 40
10.0
 40
10.0
 40
10.0
 40
10.0
 10
20.61202891864407
 20
65.12454102973222
 30
0.0
 10
26.99475732576213
 20
59.8375252419718
 30
0.0
 10
33.03797157272394
 20
55.88755101237111
 30
0.0
 10
42.01296207836629
 20
51.05287626193709
 30
0.0
 10
52.95803043774129
 20
44.79417129231902
 30
0.0
 10
66.13862125805379
 20
44.20988309787458
 30
0.0
 10
81.44638628626559
 20
46.05886584527041
 30
0.0
 10
89.21645464564059
 20
47.60330215169403
 30
0.0
 10
108.9115487754149
 20
52.44710640516624
 30
0.0
 10
122.5120967354843
 20
56.98050755533987
 30
0.0
 10
135.3137270523246
 20
61.61553902235374
 30
0.0
 10
146.3917760974635
 20
67.3318137076836
 30
0.0
 10
158.5894811755885
 20
73.54607694553084
 30
0.0
 10
167.1794822606579
 20
78.88718073242319
 30
0.0
 10
167.2511402467691
 20
85.83300999674611
 30
0.0
 10
158.9271005332274
 20
91.42078262044401
 30
0.0
 10
150.7753155939913
 20
96.42271675672873
 30
0.0
 10
142.8443612754149
 20
100.8532818066419
 30
0.0
 10
134.4844925688176
 20
104.614637058378
 30
0.0
 10
121.5109519872204
 20
109.830339369576
 30
0.0
 10
106.8338116877413
 20
112.4413772384995
 30
0.0
 10
94.30985606708157
 20
113.1681201312947
 30
0.0
 10
68.86041894685587
 20
113.2132508821627
 30
0.0
 10
54.35105479755032
 20
110.0322219650621
 30
0.0
 10
37.33831201326213
 20
104.8704353982218
 30
0.0
 10
9.714847386526017
 20
95.20987089084332
 30
0.0
 10
-2.062900551842034
 20
82.13504450195443
 30
0.0
 10
20.61202891864407
 20
65.12454102973222
 30
0.0
 10
20.61202891864407
 20
65.12454102973222
 30
0.0
 10
20.61202891864407
 20
65.12454102973222
 30
0.0
 10
20.61202891864407
 20
65.12454102973222
 30
0.0
  0
SPLINE
  5
1571
330
156B
100
AcDbEntity
  8
0
 62
     7
370
     0
100
AcDbSpline
210
0.0
220
0.0
230
1.0
 70
    11
 71
     3
 72
    35
 73
    31
 74
     0
 42
0.0000000001
 43
0.0000000001
 40
0.0
 40
0.0
 40
0.0
 40
0.0
 40
1.0
 40
1.0
 40
1.0
 40
2.0
 40
2.0
 40
2.0
 40
3.0
 40
3.0
 40
3.0
 40
4.0
 40
4.0
 40
4.0
 40
5.0
 40
5.0
 40
5.0
 40
6.0
 40
6.0
 40
6.0
 40
7.0
 40
7.0
 40
7.0
 40
8.0
 40
8.0
 40
8.0
 40
9.0
 40
9.0
 40
9.0
 40
10.0
 40
10.0
 40
10.0
 40
10.0
 10
27.14926985831422
 20
107.7946324468329
 30
0.0
 10
-6.159291339602447
 20
93.1998299294718
 30
0.0
 10
-5.352449976755238
 20
79.03325278103429
 30
0.0
 10
14.71626475848782
 20
64.79708470377736
 30
0.0
 10
18.88000716300171
 20
61.52837810655512
 30
0.0
 10
23.04874495597046
 20
59.03602377712807
 30
0.0
 10
27.53873790301907
 20
56.4206795388468
 30
0.0
 10
27.53873790301907
 20
56.4206795388468
 30
0.0
 10
59.98671424850518
 20
37.2556133496107
 30
0.0
 10
59.98671424850518
 20
37.2556133496107
 30
0.0
 10
61.65999712610934
 20
36.19038982530515
 30
0.0
 10
63.58821706968573
 20
35.98678468207598
 30
0.0
 10
65.76207232142184
 20
36.69888591905515
 30
0.0
 10
65.76207232142184
 20
36.69888591905515
 30
0.0
 10
187.6247459325329
 20
79.7899680045586
 30
0.0
 10
187.6247459325329
 20
79.7899680045586
 30
0.0
 10
188.5993634455537
 20
80.15532038086069
 30
0.0
 10
189.7593270957274
 20
81.12304770290931
 30
0.0
 10
188.1742386625677
 20
82.07596111436762
 30
0.0
 10
188.1742386625677
 20
82.07596111436762
 30
0.0
 10
153.2709427641301
 20
102.744122464194
 30
0.0
 10
153.2709427641301
 20
102.744122464194
 30
0.0
 10
148.8601870132621
 20
105.2383715961384
 30
0.0
 10
143.519255481144
 20
108.0090896408433
 30
0.0
 10
139.6659161799288
 20
109.4816957063815
 30
0.0
 10
99.92432818079684
 20
122.7399734299058
 30
0.0
 10
61.02162093253295
 20
120.6493172341593
 30
0.0
 10
27.14926985831422
 20
107.7946324468329
 30
0.0
 10
27.14926985831422
 20
107.7946324468329
 30
0.0
 10
27.14926985831422
 20
107.7946324468329
 30
0.0
 10
27.14926985831422
 20
107.7946324468329
 30
0.0
  0
POLYLINE
  5
1572
330
156B
100
AcDbEntity
  8
0
 62
     7
370
     0
100
AcDb2dPolyline
 66
     1
 10
0.0
 20
0.0
 30
0.0
  0
VERTEX
  5
1573
330
1572
100
AcDbEntity
  8
0
 62
     7
370
     0
100
AcDbVertex
100
AcDb2dVertex
 10
91.68555458053644
 20
19.71938830620792
 30
0.0
  0
VERTEX
  5
1574
330
1572
100
AcDbEntity
  8
0
 62
     7
370
     0
100
AcDbVertex
100
AcDb2dVertex
 10
98.93748057880031
 20
22.28908502929821
 30
0.0
  0
VERTEX
  5
1575
330
1572
100
AcDbEntity
  8
0
 62
     7
370
     0
100
AcDbVertex
100
AcDb2dVertex
 10
98.93748057880031
 20
23.92240479926348
 30
0.0
  0
VERTEX
  5
1576
330
1572
100
AcDbEntity
  8
0
 62
     7
370
     0
100
AcDbVertex
100
AcDb2dVertex
 10
91.68555458053644
 20
21.37441217773571
 30
0.0
  0
SEQEND
  5
1577
330
1572
100
AcDbEntity
  8
0
 62
     7
370
     0
  0
POLYLINE
  5
1578
330
156B
100
AcDbEntity
  8
0
 62
     7
370
     0
100
AcDb2dPolyline
 66
     1
 10
0.0
 20
0.0
 30
0.0
  0
VERTEX
  5
1579
330
1578
100
AcDbEntity
  8
0
 62
     7
370
     0
100
AcDbVertex
100
AcDb2dVertex
 10
92.20834782055378
 20
27.90769125759681
 30
0.0
  0
VERTEX
  5
157A
330
1578
100
AcDbEntity
  8
0
 62
     7
370
     0
100
AcDbVertex
100
AcDb2dVertex
 10
98.93748057880031
 20
23.92240479926348
 30
0.0
  0
VERTEX
  5
157B
330
1578
100
AcDbEntity
  8
0
 62
     7
370
     0
100
AcDbVertex
100
AcDb2dVertex
 10
98.93748057880031
 20
22.28908502929821
 30
0.0
  0
SEQEND
  5
157C
330
1578
100
AcDbEntity
  8
0
 62
     7
370
     0
  0
SPLINE
  5
157D
330
156B
100
AcDbEntity
  8
0
 62
     7
370
     0
100
AcDbSpline
210
0.0
220
0.0
230
1.0
 70
    11
 71
     3
 72
    38
 73
    34
 74
     0
 42
0.0000000001
 43
0.0000000001
 40
0.0
 40
0.0
 40
0.0
 40
0.0
 40
1.0
 40
1.0
 40
1.0
 40
2.0
 40
2.0
 40
2.0
 40
3.0
 40
3.0
 40
3.0
 40
4.0
 40
4.0
 40
4.0
 40
5.0
 40
5.0
 40
5.0
 40
6.0
 40
6.0
 40
6.0
 40
7.0
 40
7.0
 40
7.0
 40
8.0
 40
8.0
 40
8.0
 40
9.0
 40
9.0
 40
9.0
 40
10.0
 40
10.0
 40
10.0
 40
11.0
 40
11.0
 40
11.0
 40
11.0
 10
23.97685367992879
 20
66.10208687391625
 30
0.0
 10
11.5621075861788
 20
76.04618273980168
 30
0.0
 10
9.081294326630185
 20
82.84249486002735
 30
0.0
 10
15.79423513609198
 20
90.57346138563501
 30
0.0
 10
22.28462277715101
 20
97.14274171332597
 30
0.0
 10
33.79537581534547
 20
102.0526918001315
 30
0.0
 10
48.43393104538018
 20
105.4581686881523
 30
0.0
 10
61.37784380579685
 20
108.5251649446627
 30
0.0
 10
77.09385264911282
 20
110.658540324437
 30
0.0
 10
90.67941444381768
 20
110.5157411165378
 30
0.0
 10
103.6650128596163
 20
110.6831727571627
 30
0.0
 10
118.0985849082274
 20
108.1424148361558
 30
0.0
 10
130.6194399429496
 20
103.7189122319891
 30
0.0
 10
133.6418222129149
 20
102.6366354850273
 30
0.0
 10
136.6645489924288
 20
101.1784988205308
 30
0.0
 10
139.6872757719426
 20
99.46387479709333
 30
0.0
 10
146.1864484064913
 20
95.81465740343015
 30
0.0
 10
146.8193124472899
 20
91.09608237087803
 30
0.0
 10
141.3919090184704
 20
87.5440166699232
 30
0.0
 10
129.3058250340954
 20
80.25057727105167
 30
0.0
 10
119.2933440228107
 20
74.96700657877735
 30
0.0
 10
106.3098126643038
 20
70.11217801974959
 30
0.0
 10
91.91120833487671
 20
64.97898574544402
 30
0.0
 10
77.29039534659546
 20
61.07293648329124
 30
0.0
 10
62.25427609746351
 20
58.30893637478431
 30
0.0
 10
53.64325992992879
 20
56.83650256402041
 30
0.0
 10
45.65477251673434
 20
56.14920601454125
 30
0.0
 10
37.10662934182115
 20
58.0484871560343
 30
0.0
 10
33.43880843253297
 20
59.0685799294718
 30
0.0
 10
28.18813840215101
 20
62.25908285915929
 30
0.0
 10
23.97685367992879
 20
66.10208687391625
 30
0.0
 10
23.97685367992879
 20
66.10208687391625
 30
0.0
 10
23.97685367992879
 20
66.10208687391625
 30
0.0
 10
23.97685367992879
 20
66.10208687391625
 30
0.0
  0
SPLINE
  5
157E
330
156B
100
AcDbEntity
  8
0
 62
     7
370
     0
100
AcDbSpline
210
0.0
220
0.0
230
1.0
 70
     8
 71
     3
 72
    23
 73
    19
 74
     0
 42
0.0000000001
 43
0.0000000001
 40
0.0
 40
0.0
 40
0.0
 40
0.0
 40
1.0
 40
1.0
 40
1.0
 40
2.0
 40
2.0
 40
2.0
 40
3.0
 40
3.0
 40
3.0
 40
4.0
 40
4.0
 40
4.0
 40
5.0
 40
5.0
 40
5.0
 40
6.0
 40
6.0
 40
6.0
 40
6.0
 10
14.79274587827949
 20
56.29975668728431
 30
0.0
 10
18.95631602801907
 20
53.03105009006208
 30
0.0
 10
23.04874495597046
 20
50.09617324544402
 30
0.0
 10
27.53873790301907
 20
47.48065675238848
 30
0.0
 10
27.53873790301907
 20
47.48065675238848
 30
0.0
 10
59.98671424850518
 20
28.31559056315237
 30
0.0
 10
59.98671424850518
 20
28.31559056315237
 30
0.0
 10
61.65999712610934
 20
27.25071154839542
 30
0.0
 10
63.58821706968573
 20
27.04676189561764
 30
0.0
 10
65.76207232142184
 20
27.75886313259682
 30
0.0
 10
65.76207232142184
 20
27.75886313259682
 30
0.0
 10
187.8441985149982
 20
70.87457765082598
 30
0.0
 10
187.8441985149982
 20
70.87457765082598
 30
0.0
 10
188.3554506851371
 20
71.16654949327389
 30
0.0
 10
188.7592158761093
 20
71.37687257270096
 30
0.0
 10
188.9545527901718
 20
71.96322782443707
 30
0.0
 10
188.9545527901718
 20
71.96322782443707
 30
0.0
 10
188.9545527901718
 20
81.17989177843014
 30
0.0
 10
188.9545527901718
 20
81.17989177843014
 30
0.0
  0
SPLINE
  5
157F
330
156B
100
AcDbEntity
  8
0
 62
     7
370
     0
100
AcDbSpline
210
0.0
220
0.0
230
1.0
 70
     8
 71
     3
 72
    23
 73
    19
 74
     0
 42
0.0000000001
 43
0.0000000001
 40
0.0
 40
0.0
 40
0.0
 40
0.0
 40
1.0
 40
1.0
 40
1.0
 40
2.0
 40
2.0
 40
2.0
 40
3.0
 40
3.0
 40
3.0
 40
4.0
 40
4.0
 40
4.0
 40
5.0
 40
5.0
 40
5.0
 40
6.0
 40
6.0
 40
6.0
 40
6.0
 10
97.64522526196003
 20
24.59247587131209
 30
0.0
 10
98.74214366473781
 20
25.34798531141625
 30
0.0
 10
99.88195350631768
 20
25.88783177408986
 30
0.0
 10
100.8300437840954
 20
26.20271350152042
 30
0.0
 10
100.8300437840954
 20
26.20271350152042
 30
0.0
 10
148.0374982111788
 20
42.87146350152042
 30
0.0
 10
148.0374982111788
 20
42.87146350152042
 30
0.0
 10
149.9478036582274
 20
43.44024876627736
 30
0.0
 10
153.0756058500676
 20
43.71275581922875
 30
0.0
 10
154.6854989707274
 20
40.17154216905514
 30
0.0
 10
154.6854989707274
 20
40.17154216905514
 30
0.0
 10
156.7863181981579
 20
34.27870634006209
 30
0.0
 10
156.7863181981579
 20
34.27870634006209
 30
0.0
 10
156.9861337363524
 20
33.48564535915931
 30
0.0
 10
157.7485333674288
 20
33.2217510449232
 30
0.0
 10
158.8340829551024
 20
33.61621447808293
 30
0.0
 10
158.8340829551024
 20
33.61621447808293
 30
0.0
 10
163.6324119481579
 20
35.31326851454125
 30
0.0
 10
163.6324119481579
 20
35.31326851454125
 30
0.0
  0
INSERT
  5
1580
330
156B
100
AcDbEntity
  8
0
 62
     7
370
     0
100
AcDbBlockReference
  2
AI9-BLK5
 10
97.69225081534546
 20
-0.1980867371948562
 30
0.0
  0
SPLINE
  5
1581
330
156B
100
AcDbEntity
  8
0
 62
     7
370
     0
100
AcDbSpline
210
0.0
220
0.0
230
1.0
 70
     8
 71
     3
 72
    11
 73
     7
 74
     0
 42
0.0000000001
 43
0.0000000001
 40
0.0
 40
0.0
 40
0.0
 40
0.0
 40
1.0
 40
1.0
 40
1.0
 40
2.0
 40
2.0
 40
2.0
 40
2.0
 10
31.62048703496352
 20
26.55170167426347
 30
0.0
 10
30.65344873201212
 20
26.52827502495792
 30
0.0
 10
29.14466916386976
 20
27.51529488172875
 30
0.0
 10
28.56572086742879
 20
28.08132407009681
 30
0.0
 10
26.88933740388713
 20
29.72050050238848
 30
0.0
 10
25.70904769034546
 20
32.30948976020098
 30
0.0
 10
24.99315684833157
 20
35.44866076714541
 30
0.0
  0
SPLINE
  5
1582
330
156B
100
AcDbEntity
  8
0
 62
     7
370
     0
100
AcDbSpline
210
0.0
220
0.0
230
1.0
 70
     8
 71
     3
 72
    11
 73
     7
 74
     0
 42
0.0000000001
 43
0.0000000001
 40
0.0
 40
0.0
 40
0.0
 40
0.0
 40
1.0
 40
1.0
 40
1.0
 40
2.0
 40
2.0
 40
2.0
 40
2.0
 10
78.99778466951213
 20
9.029257012805146
 30
0.0
 10
79.61772960223782
 20
9.455759833985695
 30
0.0
 10
79.93364485831421
 20
10.15787029405514
 30
0.0
 10
80.11003374720308
 20
10.56990371419402
 30
0.0
 10
80.18272526196003
 20
10.8017586404093
 30
0.0
 10
80.25610579581421
 20
11.13283231662459
 30
0.0
 10
80.25662256013712
 20
11.47561931749264
 30
0.0
  0
SPLINE
  5
1583
330
156B
100
AcDbEntity
  8
0
 62
     7
370
     0
100
AcDbSpline
210
0.0
220
0.0
230
1.0
 70
     8
 71
     3
 72
    11
 73
     7
 74
     0
 42
0.0000000001
 43
0.0000000001
 40
0.0
 40
0.0
 40
0.0
 40
0.0
 40
1.0
 40
1.0
 40
1.0
 40
2.0
 40
2.0
 40
2.0
 40
2.0
 10
89.47001367341838
 20
13.01178739474959
 30
0.0
 10
89.47001367341838
 20
13.01178739474959
 30
0.0
 10
89.47500906187324
 20
4.774219577909306
 30
0.0
 10
89.47500906187324
 20
4.774219577909306
 30
0.0
 10
89.46725759702948
 20
4.602309313152375
 30
0.0
 10
89.52100108661282
 20
3.797190498048195
 30
0.0
 10
88.76549164650866
 20
3.56120145724958
 30
0.0
  0
SPLINE
  5
1584
330
156B
100
AcDbEntity
  8
0
 62
     7
370
     0
100
AcDbSpline
210
0.0
220
0.0
230
1.0
 70
     8
 71
     3
 72
    17
 73
    13
 74
     0
 42
0.0000000001
 43
0.0000000001
 40
0.0
 40
0.0
 40
0.0
 40
0.0
 40
1.0
 40
1.0
 40
1.0
 40
2.0
 40
2.0
 40
2.0
 40
3.0
 40
3.0
 40
3.0
 40
4.0
 40
4.0
 40
4.0
 40
4.0
 10
93.3188743505017
 20
9.606999525825983
 30
0.0
 10
93.3188743505017
 20
9.606999525825983
 30
0.0
 10
93.3188743505017
 20
1.143433445096803
 30
0.0
 10
93.3188743505017
 20
1.143433445096803
 30
0.0
 10
93.3188743505017
 20
1.143433445096803
 30
0.0
 10
86.08882470857462
 20
-1.42626327799347
 30
0.0
 10
86.08882470857462
 20
-1.42626327799347
 30
0.0
 10
86.08882470857462
 20
-1.42626327799347
 30
0.0
 10
86.08882470857462
 20
21.49430150065237
 30
0.0
 10
86.08882470857462
 20
21.49430150065237
 30
0.0
 10
86.13016585440794
 20
22.59121990343015
 30
0.0
 10
86.99109521638712
 20
22.50750408311764
 30
0.0
 10
87.44257497984198
 20
22.23568604926348
 30
0.0
  0
SPLINE
  5
1585
330
156B
100
AcDbEntity
  8
0
 62
     7
370
     0
100
AcDbSpline
210
0.0
220
0.0
230
1.0
 70
     8
 71
     3
 72
    26
 73
    22
 74
     0
 42
0.0000000001
 43
0.0000000001
 40
0.0
 40
0.0
 40
0.0
 40
0.0
 40
1.0
 40
1.0
 40
1.0
 40
2.0
 40
2.0
 40
2.0
 40
3.0
 40
3.0
 40
3.0
 40
4.0
 40
4.0
 40
4.0
 40
5.0
 40
5.0
 40
5.0
 40
6.0
 40
6.0
 40
6.0
 40
7.0
 40
7.0
 40
7.0
 40
7.0
 10
90.59294254711629
 20
9.492622355687089
 30
0.0
 10
90.59294254711629
 20
9.492622355687089
 30
0.0
 10
90.59604313305378
 20
4.262278388673195
 30
0.0
 10
90.59604313305378
 20
4.262278388673195
 30
0.0
 10
90.58829166821004
 20
4.090368123916249
 30
0.0
 10
90.55039561786282
 20
3.216347399089869
 30
0.0
 10
89.79488617775865
 20
2.980358358291255
 30
0.0
 10
89.79488617775865
 20
2.980358358291255
 30
0.0
 10
89.79488617775865
 20
2.980358358291255
 30
0.0
 10
89.79488617775865
 20
2.980358358291255
 30
0.0
 10
88.73259098461629
 20
2.649629191624583
 30
0.0
 10
88.81096690692531
 20
3.5398418652357
 30
0.0
 10
88.81096690692531
 20
3.642850220270418
 30
0.0
 10
88.81096690692531
 20
3.642850220270418
 30
0.0
 10
88.81096690692531
 20
11.72642226888152
 30
0.0
 10
88.81096690692531
 20
11.72642226888152
 30
0.0
 10
88.79804779885239
 20
12.51534913520098
 30
0.0
 10
89.09708208704683
 20
12.90843453016626
 30
0.0
 10
89.60471690692532
 20
13.09309164822181
 30
0.0
 10
90.4134530722899
 20
13.28360542860375
 30
0.0
 10
90.59983273808851
 20
12.60147652235375
 30
0.0
 10
90.59104774459893
 20
12.40855117513152
 30
0.0
  0
SPLINE
  5
1586
330
156B
100
AcDbEntity
  8
0
 62
     7
370
     0
100
AcDbSpline
210
0.0
220
0.0
230
1.0
 70
    11
 71
     3
 72
    20
 73
    16
 74
     0
 42
0.0000000001
 43
0.0000000001
 40
0.0
 40
0.0
 40
0.0
 40
0.0
 40
1.0
 40
1.0
 40
1.0
 40
2.0
 40
2.0
 40
2.0
 40
3.0
 40
3.0
 40
3.0
 40
4.0
 40
4.0
 40
4.0
 40
5.0
 40
5.0
 40
5.0
 40
5.0
 10
90.81446218687323
 20
24.64105171766624
 30
0.0
 10
90.83065413565796
 20
24.2300518261732
 30
0.0
 10
91.52484087610934
 20
24.13255562391626
 30
0.0
 10
91.88158051369615
 20
24.11843073242321
 30
0.0
 10
92.3080833348767
 20
24.11326308919402
 30
0.0
 10
93.0272470176024
 20
24.19939047634681
 30
0.0
 10
93.10114431577948
 20
24.57593941297876
 30
0.0
 10
93.10114431577948
 20
25.09993843641626
 30
0.0
 10
92.2396981894774
 20
25.14713624457598
 30
0.0
 10
91.88158051369615
 20
25.1419686013468
 30
0.0
 10
91.53155881230725
 20
25.13852350586069
 30
0.0
 10
90.89507742124823
 20
25.10166098415931
 30
0.0
 10
90.81446218687323
 20
24.64105171766624
 30
0.0
 10
90.81446218687323
 20
24.64105171766624
 30
0.0
 10
90.81446218687323
 20
24.64105171766624
 30
0.0
 10
90.81446218687323
 20
24.64105171766624
 30
0.0
  0
SPLINE
  5
1587
330
156B
100
AcDbEntity
  8
0
 62
     7
370
     0
100
AcDbSpline
210
0.0
220
0.0
230
1.0
 70
    11
 71
     3
 72
    20
 73
    16
 74
     0
 42
0.0000000001
 43
0.0000000001
 40
0.0
 40
0.0
 40
0.0
 40
0.0
 40
1.0
 40
1.0
 40
1.0
 40
2.0
 40
2.0
 40
2.0
 40
3.0
 40
3.0
 40
3.0
 40
4.0
 40
4.0
 40
4.0
 40
5.0
 40
5.0
 40
5.0
 40
5.0
 10
80.18410330015447
 20
7.495500502388466
 30
0.0
 10
81.68271983661282
 20
7.46793973849958
 30
0.0
 10
82.27510400544963
 20
8.769841322700983
 30
0.0
 10
82.54416596291489
 20
9.39753772027042
 30
0.0
 10
82.7555225709878
 20
10.0727764355482
 30
0.0
 10
82.97463064390447
 20
11.5827617871107
 30
0.0
 10
81.38041270770656
 20
11.79739123589542
 30
0.0
 10
79.8933372411267
 20
11.72056560655514
 30
0.0
 10
79.34694509702947
 20
10.45897163954126
 30
0.0
 10
79.12111908791491
 20
9.737568644749586
 30
0.0
 10
78.99830143383503
 20
9.123652629124592
 30
0.0
 10
78.84068831534546
 20
7.743202867839869
 30
0.0
 10
80.18410330015447
 20
7.495500502388466
 30
0.0
 10
80.18410330015447
 20
7.495500502388466
 30
0.0
 10
80.18410330015447
 20
7.495500502388466
 30
0.0
 10
80.18410330015447
 20
7.495500502388466
 30
0.0
  0
SPLINE
  5
1588
330
156B
100
AcDbEntity
  8
0
 62
     7
370
     0
100
AcDbSpline
210
0.0
220
0.0
230
1.0
 70
     8
 71
     3
 72
     8
 73
     4
 74
     0
 42
0.0000000001
 43
0.0000000001
 40
0.0
 40
0.0
 40
0.0
 40
0.0
 40
1.0
 40
1.0
 40
1.0
 40
1.0
 10
0.6471838123072616
 20
83.93028375976696
 30
0.0
 10
1.485203289303797
 20
71.63198189344749
 30
0.0
 10
2.789688695119764
 20
61.6668709450968
 30
0.0
 10
5.589690051456571
 20
53.07032417860376
 30
0.0
  0
SPLINE
  5
1589
330
156B
100
AcDbEntity
  8
0
 62
     7
370
     0
100
AcDbSpline
210
0.0
220
0.0
230
1.0
 70
     8
 71
     3
 72
     8
 73
     4
 74
     0
 42
0.0000000001
 43
0.0000000001
 40
0.0
 40
0.0
 40
0.0
 40
0.0
 40
1.0
 40
1.0
 40
1.0
 40
1.0
 10
28.65391531187324
 20
28.55192411349958
 30
0.0
 10
35.41353716517185
 20
25.84166749457597
 30
0.0
 10
38.69912473027601
 20
25.52816380533986
 30
0.0
 10
39.91851627758504
 20
27.07363364040932
 30
0.0
  0
SPLINE
  5
158A
330
156B
100
AcDbEntity
  8
0
 62
     7
370
     0
100
AcDbSpline
210
0.0
220
0.0
230
1.0
 70
    24
 71
     3
 72
     8
 73
     4
 74
     0
 42
0.0000000001
 43
0.0000000001
 40
0.0
 40
0.0
 40
0.0
 40
0.0
 40
1.0
 40
1.0
 40
1.0
 40
1.0
 10
71.1217796239392
 20
3.359318861763483
 30
0.0
 10
71.1217796239392
 20
3.359318861763483
 30
0.0
 10
28.08547455666491
 20
28.73554770290932
 30
0.0
 10
28.08547455666491
 20
28.73554770290932
 30
0.0
  0
SPLINE
  5
158B
330
156B
100
AcDbEntity
  8
0
 62
     7
370
     0
100
AcDbSpline
210
0.0
220
0.0
230
1.0
 70
     8
 71
     3
 72
    11
 73
     7
 74
     0
 42
0.0000000001
 43
0.0000000001
 40
0.0
 40
0.0
 40
0.0
 40
0.0
 40
1.0
 40
1.0
 40
1.0
 40
2.0
 40
2.0
 40
2.0
 40
2.0
 10
93.33403277064059
 20
18.1036385232218
 30
0.0
 10
93.33403277064059
 20
18.1036385232218
 30
0.0
 10
93.60550629494616
 20
19.06103055881209
 30
0.0
 10
93.60550629494616
 20
19.06103055881209
 30
0.0
 10
93.71557709572739
 20
19.58950820638154
 30
0.0
 10
93.883353245901
 20
20.0907695996107
 30
0.0
 10
94.09729367558851
 20
20.56550375759682
 30
0.0
  0
SPLINE
  5
158C
330
156B
100
AcDbEntity
  8
0
 62
     7
370
     0
100
AcDbSpline
210
0.0
220
0.0
230
1.0
 70
     8
 71
     3
 72
    14
 73
    10
 74
     0
 42
0.0000000001
 43
0.0000000001
 40
0.0
 40
0.0
 40
0.0
 40
0.0
 40
1.0
 40
1.0
 40
1.0
 40
2.0
 40
2.0
 40
2.0
 40
3.0
 40
3.0
 40
3.0
 40
3.0
 10
68.1853524863524
 20
23.2068584667982
 30
0.0
 10
68.1853524863524
 20
23.2068584667982
 30
0.0
 10
70.67012760571003
 20
4.456581774089869
 30
0.0
 10
70.67012760571003
 20
4.456581774089869
 30
0.0
 10
70.94573524459892
 20
2.838764933812086
 30
0.0
 10
71.68074636656072
 20
2.829463175999592
 30
0.0
 10
73.64066118860934
 20
3.520549330513475
 30
0.0
 10
73.64066118860934
 20
3.520549330513475
 30
0.0
 10
84.99862424199475
 20
7.53718615777042
 30
0.0
 10
84.99862424199475
 20
7.53718615777042
 30
0.0
  0
INSERT
  5
158D
330
156B
100
AcDbEntity
  8
0
 62
     7
370
     0
100
AcDbBlockReference
  2
AI9-BLK3
 10
58.27122895119615
 20
3.934822062718339
 30
0.0
  0
INSERT
  5
158E
330
156B
100
AcDbEntity
  8
0
 62
     7
370
     0
100
AcDbBlockReference
  2
AI9-BLK4
 10
70.21520274676906
 20
-3.350004597437902
 30
0.0
  0
LINE
  5
158F
330
156B
100
AcDbEntity
  8
0
 62
     7
370
     0
100
AcDbLine
 10
68.61185530753295
 20
4.887907728950978
 30
0.0
 11
52.40526486699476
 21
22.30148737304819
 31
0.0
  0
POLYLINE
  5
1590
330
156B
100
AcDbEntity
  8
0
 62
     7
370
     0
100
AcDb2dPolyline
 66
     1
 10
0.0
 20
0.0
 30
0.0
  0
VERTEX
  5
1591
330
1590
100
AcDbEntity
  8
0
 62
     7
370
     0
100
AcDbVertex
100
AcDb2dVertex
 10
86.08882470857462
 20
-1.42626327799347
 30
0.0
  0
VERTEX
  5
1592
330
1590
100
AcDbEntity
  8
0
 62
     7
370
     0
100
AcDbVertex
100
AcDb2dVertex
 10
84.95642182228989
 20
-0.773073173826802
 30
0.0
  0
VERTEX
  5
1593
330
1590
100
AcDbEntity
  8
0
 62
     7
370
     0
100
AcDbVertex
100
AcDb2dVertex
 10
84.95642182228989
 20
25.31318984700653
 30
0.0
  0
SEQEND
  5
1594
330
1590
100
AcDbEntity
  8
0
 62
     7
370
     0
  0
POLYLINE
  5
1595
330
156B
100
AcDbEntity
  8
0
  6
CENTER
 62
     7
370
     0
100
AcDb2dPolyline
 66
     1
 10
0.0
 20
0.0
 30
0.0
  0
VERTEX
  5
1596
330
1595
100
AcDbEntity
  8
0
  6
CENTER
 62
     7
370
     0
100
AcDbVertex
100
AcDb2dVertex
 10
72.06900862784545
 20
-4.527193725042081
 30
0.0
  0
VERTEX
  5
1597
330
1595
100
AcDbEntity
  8
0
  6
CENTER
 62
     7
370
     0
100
AcDbVertex
100
AcDb2dVertex
 10
73.44205143383504
 20
-5.341958807507353
 30
0.0
  0
VERTEX
  5
1598
330
1595
100
AcDbEntity
  8
0
  6
CENTER
 62
     7
370
     0
100
AcDbVertex
100
AcDb2dVertex
 10
73.41070106491142
 20
3.50986953450652
 30
0.0
  0
SEQEND
  5
1599
330
1595
100
AcDbEntity
  8
0
  6
CENTER
 62
     7
370
     0
  0
LINE
  5
159A
330
156B
100
AcDbEntity
  8
0
  6
AI9-LType1
 62
     7
370
     0
100
AcDbLine
 10
69.75683279234198
 20
-3.155012192924033
 30
0.0
 11
72.06900862784545
 21
-4.527193725042081
 31
0.0
  0
LINE
  5
159B
330
156B
100
AcDbEntity
  8
0
  6
CENTER
 62
     7
370
     0
100
AcDbLine
 10
64.74697493643922
 20
-0.181550278861522
 30
0.0
 11
68.29266721074475
 21
-2.285814601778184
 31
0.0
  0
LINE
  5
159C
330
156B
100
AcDbEntity
  8
0
  6
CENTER
 62
     7
370
     0
100
AcDbLine
 10
79.40568397506767
 20
10.39351482530515
 30
0.0
 11
84.99914100631768
 21
7.087256687284309
 31
0.0
  0
LINE
  5
159D
330
156B
100
AcDbEntity
  8
0
 62
     7
370
     0
100
AcDbLine
 10
93.3188743505017
 20
20.31952393988849
 30
0.0
 11
93.3188743505017
 21
12.29107341905515
 31
0.0
  0
LINE
  5
159E
330
156B
100
AcDbEntity
  8
0
  6
AI9-LType1
 62
     7
370
     0
100
AcDbLine
 10
91.90896902281073
 20
19.76589709527042
 30
0.0
 11
91.90896902281073
 21
16.70114015082598
 31
0.0
  0
LINE
  5
159F
330
156B
100
AcDbEntity
  8
0
  6
CENTER
 62
     7
370
     0
100
AcDbLine
 10
88.76824772289754
 20
4.859657945964869
 30
0.0
 11
95.13254486916491
 21
1.098302694228749
 31
0.0
  0
POLYLINE
  5
15A0
330
156B
100
AcDbEntity
  8
0
 62
     7
370
     0
100
AcDb2dPolyline
 66
     1
 10
0.0
 20
0.0
 30
0.0
  0
VERTEX
  5
15A1
330
15A0
100
AcDbEntity
  8
0
 62
     7
370
     0
100
AcDbVertex
100
AcDb2dVertex
 10
90.94727061786281
 20
12.51810521158987
 30
0.0
  0
VERTEX
  5
15A2
330
15A0
100
AcDbEntity
  8
0
 62
     7
370
     0
100
AcDbVertex
100
AcDb2dVertex
 10
90.83633854321004
 20
12.47814210395097
 30
0.0
  0
VERTEX
  5
15A3
330
15A0
100
AcDbEntity
  8
0
 62
     7
370
     0
100
AcDbVertex
100
AcDb2dVertex
 10
90.7298850926892
 20
12.43507841037458
 30
0.0
  0
VERTEX
  5
15A4
330
15A0
100
AcDbEntity
  8
0
 62
     7
370
     0
100
AcDbVertex
100
AcDb2dVertex
 10
90.62791026630032
 20
12.38753609266625
 30
0.0
  0
VERTEX
  5
15A5
330
15A0
100
AcDbEntity
  8
0
 62
     7
370
     0
100
AcDbVertex
100
AcDb2dVertex
 10
90.53368690475517
 20
12.33517064127736
 30
0.0
  0
VERTEX
  5
15A6
330
15A0
100
AcDbEntity
  8
0
 62
     7
370
     0
100
AcDbVertex
100
AcDb2dVertex
 10
90.44394216734199
 20
12.28108264214542
 30
0.0
  0
VERTEX
  5
15A7
330
15A0
100
AcDbEntity
  8
0
 62
     7
370
     0
100
AcDbVertex
100
AcDb2dVertex
 10
90.36074311135241
 20
12.22320503797874
 30
0.0
  0
VERTEX
  5
15A8
330
15A0
100
AcDbEntity
  8
0
 62
     7
370
     0
100
AcDbVertex
100
AcDb2dVertex
 10
90.28529552020655
 20
12.16119331922874
 30
0.0
  0
VERTEX
  5
15A9
330
15A0
100
AcDbEntity
  8
0
 62
     7
370
     0
100
AcDbVertex
100
AcDb2dVertex
 10
90.21656586525864
 20
12.09814807183292
 30
0.0
  0
VERTEX
  5
15AA
330
15A0
100
AcDbEntity
  8
0
 62
     7
370
     0
100
AcDbVertex
100
AcDb2dVertex
 10
90.15558767515448
 20
12.03165772895097
 30
0.0
  0
VERTEX
  5
15AB
330
15A0
100
AcDbEntity
  8
0
 62
     7
370
     0
100
AcDbVertex
100
AcDb2dVertex
 10
90.10236094989407
 20
11.96275581922876
 30
0.0
  0
VERTEX
  5
15AC
330
15A0
100
AcDbEntity
  8
0
 62
     7
370
     0
100
AcDbVertex
100
AcDb2dVertex
 10
90.05705794425171
 20
11.89178685221486
 30
0.0
  0
VERTEX
  5
15AD
330
15A0
100
AcDbEntity
  8
0
 62
     7
370
     0
100
AcDbVertex
100
AcDb2dVertex
 10
90.02036767732462
 20
11.81978435655514
 30
0.0
  0
VERTEX
  5
15AE
330
15A0
100
AcDbEntity
  8
0
 62
     7
370
     0
100
AcDbVertex
100
AcDb2dVertex
 10
89.99039534659544
 20
11.74537029405513
 30
0.0
  0
VERTEX
  5
15AF
330
15A0
100
AcDbEntity
  8
0
 62
     7
370
     0
100
AcDbVertex
100
AcDb2dVertex
 10
89.97161957619615
 20
11.67130074110375
 30
0.0
  0
VERTEX
  5
15B0
330
15A0
100
AcDbEntity
  8
0
 62
     7
370
     0
100
AcDbVertex
100
AcDb2dVertex
 10
89.95938948722045
 20
11.59585314995791
 30
0.0
  0
VERTEX
  5
15B1
330
15A0
100
AcDbEntity
  8
0
 62
     7
370
     0
100
AcDbVertex
100
AcDb2dVertex
 10
89.95715017515449
 20
11.52040555881209
 30
0.0
  0
VERTEX
  5
15B2
330
15A0
100
AcDbEntity
  8
0
 62
     7
370
     0
100
AcDbVertex
100
AcDb2dVertex
 10
89.96266232793226
 20
11.4463360058607
 30
0.0
  0
VERTEX
  5
15B3
330
15A0
100
AcDbEntity
  8
0
 62
     7
370
     0
100
AcDbVertex
100
AcDb2dVertex
 10
89.97816525761976
 20
11.37088841471487
 30
0.0
  0
VERTEX
  5
15B4
330
15A0
100
AcDbEntity
  8
0
 62
     7
370
     0
100
AcDbVertex
100
AcDb2dVertex
 10
90.00038612350518
 20
11.29647435221486
 30
0.0
  0
VERTEX
  5
15B5
330
15A0
100
AcDbEntity
  8
0
 62
     7
370
     0
100
AcDbVertex
100
AcDb2dVertex
 10
90.03259776630031
 20
11.2234383279093
 30
0.0
  0
VERTEX
  5
15B6
330
15A0
100
AcDbEntity
  8
0
 62
     7
370
     0
100
AcDbVertex
100
AcDb2dVertex
 10
90.07135509051906
 20
11.15143583224959
 30
0.0
  0
VERTEX
  5
15B7
330
15A0
100
AcDbEntity
  8
0
 62
     7
370
     0
100
AcDbVertex
100
AcDb2dVertex
 10
90.12130897506768
 20
11.08150039388152
 30
0.0
  0
VERTEX
  5
15B8
330
15A0
100
AcDbEntity
  8
0
 62
     7
370
     0
100
AcDbVertex
100
AcDb2dVertex
 10
90.17677501239406
 20
11.01397652235374
 30
0.0
  0
VERTEX
  5
15B9
330
15A0
100
AcDbEntity
  8
0
 62
     7
370
     0
100
AcDbVertex
100
AcDb2dVertex
 10
90.24102604321004
 20
10.94851970811764
 30
0.0
  0
VERTEX
  5
15BA
330
15A0
100
AcDbEntity
  8
0
 62
     7
370
     0
100
AcDbVertex
100
AcDb2dVertex
 10
90.31182275544962
 20
10.8851299511732
 30
0.0
  0
VERTEX
  5
15BB
330
15A0
100
AcDbEntity
  8
0
 62
     7
370
     0
100
AcDbVertex
100
AcDb2dVertex
 10
90.39071544208157
 20
10.82518528971486
 30
0.0
  0
VERTEX
  5
15BC
330
15A0
100
AcDbEntity
  8
0
 62
     7
370
     0
100
AcDbVertex
100
AcDb2dVertex
 10
90.47494802671698
 20
10.76765219509681
 30
0.0
  0
VERTEX
  5
15BD
330
15A0
100
AcDbEntity
  8
0
 62
     7
370
     0
100
AcDbVertex
100
AcDb2dVertex
 10
90.56693207619614
 20
10.7145977246107
 30
0.0
  0
VERTEX
  5
15BE
330
15A0
100
AcDbEntity
  8
0
 62
     7
370
     0
100
AcDbVertex
100
AcDb2dVertex
 10
90.66442827845309
 20
10.66361031141625
 30
0.0
  0
VERTEX
  5
15BF
330
15A0
100
AcDbEntity
  8
0
 62
     7
370
     0
100
AcDbVertex
100
AcDb2dVertex
 10
90.76657535961627
 20
10.61813505099958
 30
0.0
  0
VERTEX
  5
15C0
330
15A0
100
AcDbEntity
  8
0
 62
     7
370
     0
100
AcDbVertex
100
AcDb2dVertex
 10
90.87509586742879
 20
10.57576037652042
 30
0.0
  0
VERTEX
  5
15C1
330
15A0
100
AcDbEntity
  8
0
 62
     7
370
     0
100
AcDbVertex
100
AcDb2dVertex
 10
90.98826725414753
 20
10.5382088357218
 30
0.0
  0
VERTEX
  5
15C2
330
15A0
100
AcDbEntity
  8
0
 62
     7
370
     0
100
AcDbVertex
100
AcDb2dVertex
 10
91.10453922680378
 20
10.50513591905513
 30
0.0
  0
VERTEX
  5
15C3
330
15A0
100
AcDbEntity
  8
0
 62
     7
370
     0
100
AcDbVertex
100
AcDb2dVertex
 10
91.22546207836629
 20
10.4761971169718
 30
0.0
  0
VERTEX
  5
15C4
330
15A0
100
AcDbEntity
  8
0
 62
     7
370
     0
100
AcDbVertex
100
AcDb2dVertex
 10
91.34845198722045
 20
10.45070341037458
 30
0.0
  0
VERTEX
  5
15C5
330
15A0
100
AcDbEntity
  8
0
 62
     7
370
     0
100
AcDbVertex
100
AcDb2dVertex
 10
91.47488699156074
 20
10.4327889138468
 30
0.0
  0
VERTEX
  5
15C6
330
15A0
100
AcDbEntity
  8
0
 62
     7
370
     0
100
AcDbVertex
100
AcDb2dVertex
 10
91.60235552454684
 20
10.41728598415931
 30
0.0
  0
VERTEX
  5
15C7
330
15A0
100
AcDbEntity
  8
0
 62
     7
370
     0
100
AcDbVertex
100
AcDb2dVertex
 10
91.73206336959893
 20
10.40832873589542
 30
0.0
  0
VERTEX
  5
15C8
330
15A0
100
AcDbEntity
  8
0
 62
     7
370
     0
100
AcDbVertex
100
AcDb2dVertex
 10
91.86177121465101
 20
10.40316109266625
 30
0.0
  0
VERTEX
  5
15C9
330
15A0
100
AcDbEntity
  8
0
 62
     7
370
     0
100
AcDbVertex
100
AcDb2dVertex
 10
91.99371837176906
 20
10.40419462131208
 30
0.0
  0
VERTEX
  5
15CA
330
15A0
100
AcDbEntity
  8
0
 62
     7
370
     0
100
AcDbVertex
100
AcDb2dVertex
 10
92.12342621682115
 20
10.40970677408987
 30
0.0
  0
VERTEX
  5
15CB
330
15A0
100
AcDbEntity
  8
0
 62
     7
370
     0
100
AcDbVertex
100
AcDb2dVertex
 10
92.2519282784531
 20
10.41969755099958
 30
0.0
  0
VERTEX
  5
15CC
330
15A0
100
AcDbEntity
  8
0
 62
     7
370
     0
100
AcDbVertex
100
AcDb2dVertex
 10
92.3795690662135
 20
10.43520048068709
 30
0.0
  0
VERTEX
  5
15CD
330
15A0
100
AcDbEntity
  8
0
 62
     7
370
     0
100
AcDbVertex
100
AcDb2dVertex
 10
92.50479828713364
 20
10.45518203450652
 30
0.0
  0
VERTEX
  5
15CE
330
15A0
100
AcDbEntity
  8
0
 62
     7
370
     0
100
AcDbVertex
100
AcDb2dVertex
 10
92.62778819598782
 20
10.48067574110375
 30
0.0
  0
VERTEX
  5
15CF
330
15A0
100
AcDbEntity
  8
0
 62
     7
370
     0
100
AcDbVertex
100
AcDb2dVertex
 10
92.74871104755032
 20
10.51064807183291
 30
0.0
  0
VERTEX
  5
15D0
330
15A0
100
AcDbEntity
  8
0
 62
     7
370
     0
100
AcDbVertex
100
AcDb2dVertex
 10
92.86515527498087
 20
10.54475451714542
 30
0.0
  0
VERTEX
  5
15D1
330
15A0
100
AcDbEntity
  8
0
 62
     7
370
     0
100
AcDbVertex
100
AcDb2dVertex
 10
92.97591509485934
 20
10.58368409613848
 30
0.0
  0
VERTEX
  5
15D2
330
15A0
100
AcDbEntity
  8
0
 62
     7
370
     0
100
AcDbVertex
100
AcDb2dVertex
 10
93.08357432880031
 20
10.62571426106902
 30
0.0
  0
VERTEX
  5
15D3
330
15A0
100
AcDbEntity
  8
0
 62
     7
370
     0
100
AcDbVertex
100
AcDb2dVertex
 10
93.18554915518921
 20
10.67256755968014
 30
0.0
  0
VERTEX
  5
15D4
330
15A0
100
AcDbEntity
  8
0
 62
     7
370
     0
100
AcDbVertex
100
AcDb2dVertex
 10
93.281839574026
 20
10.72458850152043
 30
0.0
  0
VERTEX
  5
15D5
330
15A0
100
AcDbEntity
  8
0
 62
     7
370
     0
100
AcDbVertex
100
AcDb2dVertex
 10
93.37279009485934
 20
10.77764297200653
 30
0.0
  0
VERTEX
  5
15D6
330
15A0
100
AcDbEntity
  8
0
 62
     7
370
     0
100
AcDbVertex
100
AcDb2dVertex
 10
93.45598915084892
 20
10.83517606662458
 30
0.0
  0
VERTEX
  5
15D7
330
15A0
100
AcDbEntity
  8
0
 62
     7
370
     0
100
AcDbVertex
100
AcDb2dVertex
 10
93.53367605406074
 20
10.89615425672875
 30
0.0
  0
VERTEX
  5
15D8
330
15A0
100
AcDbEntity
  8
0
 62
     7
370
     0
100
AcDbVertex
100
AcDb2dVertex
 10
93.60343923765448
 20
10.95954401367319
 30
0.0
  0
VERTEX
  5
15D9
330
15A0
100
AcDbEntity
  8
0
 62
     7
370
     0
100
AcDbVertex
100
AcDb2dVertex
 10
93.66545095640448
 20
11.02603435655514
 30
0.0
  0
VERTEX
  5
15DA
330
15A0
100
AcDbEntity
  8
0
 62
     7
370
     0
100
AcDbVertex
100
AcDb2dVertex
 10
93.72091699373086
 20
11.09355822808291
 30
0.0
  0
VERTEX
  5
15DB
330
15A0
100
AcDbEntity
  8
0
 62
     7
370
     0
100
AcDbVertex
100
AcDb2dVertex
 10
93.76742578279337
 20
11.16452719509681
 30
0.0
  0
VERTEX
  5
15DC
330
15A0
100
AcDbEntity
  8
0
 62
     7
370
     0
100
AcDbVertex
100
AcDb2dVertex
 10
93.80635536178642
 20
11.23652969075652
 30
0.0
  0
VERTEX
  5
15DD
330
15A0
100
AcDbEntity
  8
0
 62
     7
370
     0
100
AcDbVertex
100
AcDb2dVertex
 10
93.83615543774128
 20
11.30991022461069
 30
0.0
  0
VERTEX
  5
15DE
330
15A0
100
AcDbEntity
  8
0
 62
     7
370
     0
100
AcDbVertex
100
AcDb2dVertex
 10
93.8583763036267
 20
11.38397977756209
 30
0.0
  0
VERTEX
  5
15DF
330
15A0
100
AcDbEntity
  8
0
 62
     7
370
     0
100
AcDbVertex
100
AcDb2dVertex
 10
93.87060639260239
 20
11.45942736870792
 30
0.0
  0
VERTEX
  5
15E0
330
15A0
100
AcDbEntity
  8
0
 62
     7
370
     0
100
AcDbVertex
100
AcDb2dVertex
 10
93.87491276196003
 20
11.53487495985375
 30
0.0
  0
VERTEX
  5
15E1
330
15A0
100
AcDbEntity
  8
0
 62
     7
370
     0
100
AcDbVertex
100
AcDb2dVertex
 10
93.87060639260239
 20
11.61032255099958
 30
0.0
  0
VERTEX
  5
15E2
330
15A0
100
AcDbEntity
  8
0
 62
     7
370
     0
100
AcDbVertex
100
AcDb2dVertex
 10
93.8583763036267
 20
11.68439210395098
 30
0.0
  0
VERTEX
  5
15E3
330
15A0
100
AcDbEntity
  8
0
 62
     7
370
     0
100
AcDbVertex
100
AcDb2dVertex
 10
93.83615543774128
 20
11.75880616645097
 30
0.0
  0
VERTEX
  5
15E4
330
15A0
100
AcDbEntity
  8
0
 62
     7
370
     0
100
AcDbVertex
100
AcDb2dVertex
 10
93.80635536178642
 20
11.83322022895098
 30
0.0
  0
VERTEX
  5
15E5
330
15A0
100
AcDbEntity
  8
0
 62
     7
370
     0
100
AcDbVertex
100
AcDb2dVertex
 10
93.76742578279337
 20
11.90522272461069
 30
0.0
  0
VERTEX
  5
15E6
330
15A0
100
AcDbEntity
  8
0
 62
     7
370
     0
100
AcDbVertex
100
AcDb2dVertex
 10
93.72195052237669
 20
11.97515816297874
 30
0.0
  0
VERTEX
  5
15E7
330
15A0
100
AcDbEntity
  8
0
 62
     7
370
     0
100
AcDbVertex
100
AcDb2dVertex
 10
93.66545095640448
 20
12.04371556315236
 30
0.0
  0
VERTEX
  5
15E8
330
15A0
100
AcDbEntity
  8
0
 62
     7
370
     0
100
AcDbVertex
100
AcDb2dVertex
 10
93.60343923765448
 20
12.10917237738847
 30
0.0
  0
VERTEX
  5
15E9
330
15A0
100
AcDbEntity
  8
0
 62
     7
370
     0
100
AcDbVertex
100
AcDb2dVertex
 10
93.53367605406074
 20
12.17325115343014
 30
0.0
  0
VERTEX
  5
15EA
330
15A0
100
AcDbEntity
  8
0
 62
     7
370
     0
100
AcDbVertex
100
AcDb2dVertex
 10
93.45598915084892
 20
12.23319581488847
 30
0.0
  0
VERTEX
  5
15EB
330
15A0
100
AcDbEntity
  8
0
 62
     7
370
     0
100
AcDbVertex
100
AcDb2dVertex
 10
93.37279009485934
 20
12.29107341905515
 30
0.0
  0
VERTEX
  5
15EC
330
15A0
100
AcDbEntity
  8
0
 62
     7
370
     0
100
AcDbVertex
100
AcDb2dVertex
 10
93.28304535744615
 20
12.34516141818709
 30
0.0
  0
VERTEX
  5
15ED
330
15A0
100
AcDbEntity
  8
0
 62
     7
370
     0
100
AcDbVertex
100
AcDb2dVertex
 10
93.18554915518921
 20
12.39511530273569
 30
0.0
  0
VERTEX
  5
15EE
330
15A0
100
AcDbEntity
  8
0
 62
     7
370
     0
100
AcDbVertex
100
AcDb2dVertex
 10
93.08460785744614
 20
12.44265762044404
 30
0.0
  0
VERTEX
  5
15EF
330
15A0
100
AcDbEntity
  8
0
 62
     7
370
     0
100
AcDbVertex
100
AcDb2dVertex
 10
92.97591509485934
 20
12.48606582356902
 30
0.0
  0
VERTEX
  5
15F0
330
15A0
100
AcDbEntity
  8
0
 62
     7
370
     0
100
AcDbVertex
100
AcDb2dVertex
 10
92.86515527498087
 20
12.52465089301347
 30
0.0
  0
VERTEX
  5
15F1
330
15A0
100
AcDbEntity
  8
0
 62
     7
370
     0
100
AcDbVertex
100
AcDb2dVertex
 10
92.74871104755032
 20
12.55806831922875
 30
0.0
  0
SEQEND
  5
15F2
330
15A0
100
AcDbEntity
  8
0
 62
     7
370
     0
  0
POLYLINE
  5
15F3
330
156B
100
AcDbEntity
  8
0
 62
     7
370
     0
100
AcDb2dPolyline
 66
     1
 10
0.0
 20
0.0
 30
0.0
  0
VERTEX
  5
15F4
330
15F3
100
AcDbEntity
  8
0
 62
     7
370
     0
100
AcDbVertex
100
AcDb2dVertex
 10
90.53368690475517
 20
9.598042277562086
 30
0.0
  0
VERTEX
  5
15F5
330
15F3
100
AcDbEntity
  8
0
 62
     7
370
     0
100
AcDbVertex
100
AcDb2dVertex
 10
90.64117388392183
 20
9.558079169923189
 30
0.0
  0
VERTEX
  5
15F6
330
15F3
100
AcDbEntity
  8
0
 62
     7
370
     0
100
AcDbVertex
100
AcDb2dVertex
 10
90.75537879928644
 20
9.522594686416255
 30
0.0
  0
VERTEX
  5
15F7
330
15F3
100
AcDbEntity
  8
0
 62
     7
370
     0
100
AcDbVertex
100
AcDb2dVertex
 10
90.87406233878295
 20
9.489521769749586
 30
0.0
  0
VERTEX
  5
15F8
330
15F3
100
AcDbEntity
  8
0
 62
     7
370
     0
100
AcDbVertex
100
AcDb2dVertex
 10
90.99601871899128
 20
9.4619610058607
 30
0.0
  0
VERTEX
  5
15F9
330
15F3
100
AcDbEntity
  8
0
 62
     7
370
     0
100
AcDbVertex
100
AcDb2dVertex
 10
91.12228146855725
 20
9.436467299263483
 30
0.0
  0
VERTEX
  5
15FA
330
15F3
100
AcDbEntity
  8
0
 62
     7
370
     0
100
AcDbVertex
100
AcDb2dVertex
 10
91.25095578496351
 20
9.414074178603755
 30
0.0
  0
VERTEX
  5
15FB
330
15F3
100
AcDbEntity
  8
0
 62
     7
370
     0
100
AcDbVertex
100
AcDb2dVertex
 10
91.38290294208156
 20
9.39753772027042
 30
0.0
  0
VERTEX
  5
15FC
330
15F3
100
AcDbEntity
  8
0
 62
     7
370
     0
100
AcDbVertex
100
AcDb2dVertex
 10
91.51588362784545
 20
9.383068319228755
 30
0.0
  0
VERTEX
  5
15FD
330
15F3
100
AcDbEntity
  8
0
 62
     7
370
     0
100
AcDbVertex
100
AcDb2dVertex
 10
91.65110362567531
 20
9.374111070964858
 30
0.0
  0
VERTEX
  5
15FE
330
15F3
100
AcDbEntity
  8
0
 62
     7
370
     0
100
AcDbVertex
100
AcDb2dVertex
 10
91.78752940692531
 20
9.367565389541255
 30
0.0
  0
VERTEX
  5
15FF
330
15F3
100
AcDbEntity
  8
0
 62
     7
370
     0
100
AcDbVertex
100
AcDb2dVertex
 10
91.92498871682115
 20
9.36653186089542
 30
0.0
  0
VERTEX
  5
1600
330
15F3
100
AcDbEntity
  8
0
 62
     7
370
     0
100
AcDbVertex
100
AcDb2dVertex
 10
92.06244802671697
 20
9.368598918187089
 30
0.0
  0
VERTEX
  5
1601
330
15F3
100
AcDbEntity
  8
0
 62
     7
370
     0
100
AcDbVertex
100
AcDb2dVertex
 10
92.19887380796697
 20
9.375489109159303
 30
0.0
  0
VERTEX
  5
1602
330
15F3
100
AcDbEntity
  8
0
 62
     7
370
     0
100
AcDbVertex
100
AcDb2dVertex
 10
92.33392155102254
 20
9.386513414714869
 30
0.0
  0
VERTEX
  5
1603
330
15F3
100
AcDbEntity
  8
0
 62
     7
370
     0
100
AcDbVertex
100
AcDb2dVertex
 10
92.46707449156074
 20
9.40098281575652
 30
0.0
  0
VERTEX
  5
1604
330
15F3
100
AcDbEntity
  8
0
 62
     7
370
     0
100
AcDbVertex
100
AcDb2dVertex
 10
92.59902164867879
 20
9.418552802735689
 30
0.0
  0
VERTEX
  5
1605
330
15F3
100
AcDbEntity
  8
0
 62
     7
370
     0
100
AcDbVertex
100
AcDb2dVertex
 10
92.72752371031073
 20
9.440601413846806
 30
0.0
  0
VERTEX
  5
1606
330
15F3
100
AcDbEntity
  8
0
 62
     7
370
     0
100
AcDbVertex
100
AcDb2dVertex
 10
92.85292518600519
 20
9.467473158638483
 30
0.0
  0
VERTEX
  5
1607
330
15F3
100
AcDbEntity
  8
0
 62
     7
370
     0
100
AcDbVertex
100
AcDb2dVertex
 10
92.97470931143919
 20
9.496067451173189
 30
0.0
  0
VERTEX
  5
1608
330
15F3
100
AcDbEntity
  8
0
 62
     7
370
     0
100
AcDbVertex
100
AcDb2dVertex
 10
93.0923593222899
 20
9.530518406034303
 30
0.0
  0
VERTEX
  5
1609
330
15F3
100
AcDbEntity
  8
0
 62
     7
370
     0
100
AcDbVertex
100
AcDb2dVertex
 10
93.20535845423433
 20
9.566002889541252
 30
0.0
  0
VERTEX
  5
160A
330
15F3
100
AcDbEntity
  8
0
 62
     7
370
     0
100
AcDbVertex
100
AcDb2dVertex
 10
93.31284543340101
 20
9.606999525825983
 30
0.0
  0
SEQEND
  5
160B
330
15F3
100
AcDbEntity
  8
0
 62
     7
370
     0
  0
LINE
  5
160C
330
156B
100
AcDbEntity
  8
0
 62
     7
370
     0
100
AcDbLine
 10
92.69100569815796
 20
12.81197185655514
 30
0.0
 11
92.69100569815796
 21
13.1613045388468
 31
0.0
  0
POLYLINE
  5
160D
330
156B
100
AcDbEntity
  8
0
 62
     7
370
     0
100
AcDb2dPolyline
 66
     1
 10
0.0
 20
0.0
 30
0.0
  0
VERTEX
  5
160E
330
160D
100
AcDbEntity
  8
0
 62
     7
370
     0
100
AcDbVertex
100
AcDb2dVertex
 10
91.14002371031073
 20
13.27430367079125
 30
0.0
  0
VERTEX
  5
160F
330
160D
100
AcDbEntity
  8
0
 62
     7
370
     0
100
AcDbVertex
100
AcDb2dVertex
 10
91.14226302237671
 20
13.22676135308292
 30
0.0
  0
VERTEX
  5
1610
330
160D
100
AcDbEntity
  8
0
 62
     7
370
     0
100
AcDbVertex
100
AcDb2dVertex
 10
91.1544931113524
 20
13.18094158311764
 30
0.0
  0
VERTEX
  5
1611
330
160D
100
AcDbEntity
  8
0
 62
     7
370
     0
100
AcDbVertex
100
AcDb2dVertex
 10
91.17326888175171
 20
13.13787788954124
 30
0.0
  0
VERTEX
  5
1612
330
160D
100
AcDbEntity
  8
0
 62
     7
370
     0
100
AcDbVertex
100
AcDb2dVertex
 10
91.20100190041489
 20
13.0958477246107
 30
0.0
  0
VERTEX
  5
1613
330
160D
100
AcDbEntity
  8
0
 62
     7
370
     0
100
AcDbVertex
100
AcDb2dVertex
 10
91.23545285527601
 20
13.05795167426348
 30
0.0
  0
VERTEX
  5
1614
330
160D
100
AcDbEntity
  8
0
 62
     7
370
     0
100
AcDbVertex
100
AcDb2dVertex
 10
91.27851654885239
 20
13.02246719075653
 30
0.0
  0
VERTEX
  5
1615
330
160D
100
AcDbEntity
  8
0
 62
     7
370
     0
100
AcDbVertex
100
AcDb2dVertex
 10
91.32847043340101
 20
12.99283936957597
 30
0.0
  0
VERTEX
  5
1616
330
160D
100
AcDbEntity
  8
0
 62
     7
370
     0
100
AcDbVertex
100
AcDb2dVertex
 10
91.3839364707274
 20
12.9659676247843
 30
0.0
  0
VERTEX
  5
1617
330
160D
100
AcDbEntity
  8
0
 62
     7
370
     0
100
AcDbVertex
100
AcDb2dVertex
 10
91.44491466083156
 20
12.94495254231903
 30
0.0
  0
VERTEX
  5
1618
330
160D
100
AcDbEntity
  8
0
 62
     7
370
     0
100
AcDbVertex
100
AcDb2dVertex
 10
91.51140500371351
 20
12.92841608398569
 30
0.0
  0
VERTEX
  5
1619
330
160D
100
AcDbEntity
  8
0
 62
     7
370
     0
100
AcDbVertex
100
AcDb2dVertex
 10
91.5823739707274
 20
12.91498021158986
 30
0.0
  0
VERTEX
  5
161A
330
160D
100
AcDbEntity
  8
0
 62
     7
370
     0
100
AcDbVertex
100
AcDb2dVertex
 10
91.65661577845309
 20
12.90843453016626
 30
0.0
  0
VERTEX
  5
161B
330
160D
100
AcDbEntity
  8
0
 62
     7
370
     0
100
AcDbVertex
100
AcDb2dVertex
 10
91.73430268166489
 20
12.90636747287459
 30
0.0
  0
VERTEX
  5
161C
330
160D
100
AcDbEntity
  8
0
 62
     7
370
     0
100
AcDbVertex
100
AcDb2dVertex
 10
91.81405664216837
 20
12.90946805881208
 30
0.0
  0
VERTEX
  5
161D
330
160D
100
AcDbEntity
  8
0
 62
     7
370
     0
100
AcDbVertex
100
AcDb2dVertex
 10
91.89381060267185
 20
12.91842530707598
 30
0.0
  0
VERTEX
  5
161E
330
160D
100
AcDbEntity
  8
0
 62
     7
370
     0
100
AcDbVertex
100
AcDb2dVertex
 10
91.97494260136975
 20
12.93186117947181
 30
0.0
  0
VERTEX
  5
161F
330
160D
100
AcDbEntity
  8
0
 62
     7
370
     0
100
AcDbVertex
100
AcDb2dVertex
 10
92.05469656187323
 20
12.94943116645098
 30
0.0
  0
VERTEX
  5
1620
330
160D
100
AcDbEntity
  8
0
 62
     7
370
     0
100
AcDbVertex
100
AcDb2dVertex
 10
92.13221121031073
 20
12.97285781575652
 30
0.0
  0
VERTEX
  5
1621
330
160D
100
AcDbEntity
  8
0
 62
     7
370
     0
100
AcDbVertex
100
AcDb2dVertex
 10
92.20886458487671
 20
13.00041857964541
 30
0.0
  0
VERTEX
  5
1622
330
160D
100
AcDbEntity
  8
0
 62
     7
370
     0
100
AcDbVertex
100
AcDb2dVertex
 10
92.28190060918226
 20
13.03039091037459
 30
0.0
  0
VERTEX
  5
1623
330
160D
100
AcDbEntity
  8
0
 62
     7
370
     0
100
AcDbVertex
100
AcDb2dVertex
 10
92.35063026413017
 20
13.06690892252736
 30
0.0
  0
VERTEX
  5
1624
330
160D
100
AcDbEntity
  8
0
 62
     7
370
     0
100
AcDbVertex
100
AcDb2dVertex
 10
92.41505354972046
 20
13.10446046332598
 30
0.0
  0
VERTEX
  5
1625
330
160D
100
AcDbEntity
  8
0
 62
     7
370
     0
100
AcDbVertex
100
AcDb2dVertex
 10
92.47482595640448
 20
13.14786866645097
 30
0.0
  0
VERTEX
  5
1626
330
160D
100
AcDbEntity
  8
0
 62
     7
370
     0
100
AcDbVertex
100
AcDb2dVertex
 10
92.5280526816649
 20
13.19127686957597
 30
0.0
  0
VERTEX
  5
1627
330
160D
100
AcDbEntity
  8
0
 62
     7
370
     0
100
AcDbVertex
100
AcDb2dVertex
 10
92.57352794208157
 20
13.23778565863847
 30
0.0
  0
VERTEX
  5
1628
330
160D
100
AcDbEntity
  8
0
 62
     7
370
     0
100
AcDbVertex
100
AcDb2dVertex
 10
92.61331879494616
 20
13.28636150499264
 30
0.0
  0
VERTEX
  5
1629
330
160D
100
AcDbEntity
  8
0
 62
     7
370
     0
100
AcDbVertex
100
AcDb2dVertex
 10
92.64449690909545
 20
13.33528186089542
 30
0.0
  0
VERTEX
  5
162A
330
160D
100
AcDbEntity
  8
0
 62
     7
370
     0
100
AcDbVertex
100
AcDb2dVertex
 10
92.66878483227253
 20
13.38385770724959
 30
0.0
  0
VERTEX
  5
162B
330
160D
100
AcDbEntity
  8
0
 62
     7
370
     0
100
AcDbVertex
100
AcDb2dVertex
 10
92.68549354538018
 20
13.43381159179819
 30
0.0
  0
VERTEX
  5
162C
330
160D
100
AcDbEntity
  8
0
 62
     7
370
     0
100
AcDbVertex
100
AcDb2dVertex
 10
92.69100569815796
 20
13.4837654763468
 30
0.0
  0
SEQEND
  5
162D
330
160D
100
AcDbEntity
  8
0
 62
     7
370
     0
  0
POLYLINE
  5
162E
330
156B
100
AcDbEntity
  8
0
 62
     7
370
     0
100
AcDb2dPolyline
 66
     1
 10
0.0
 20
0.0
 30
0.0
  0
VERTEX
  5
162F
330
162E
100
AcDbEntity
  8
0
 62
     7
370
     0
100
AcDbVertex
100
AcDb2dVertex
 10
91.11676931577948
 20
12.90636747287459
 30
0.0
  0
VERTEX
  5
1630
330
162E
100
AcDbEntity
  8
0
 62
     7
370
     0
100
AcDbVertex
100
AcDb2dVertex
 10
91.06905474329684
 20
12.85193496419403
 30
0.0
  0
VERTEX
  5
1631
330
162E
100
AcDbEntity
  8
0
 62
     7
370
     0
100
AcDbVertex
100
AcDb2dVertex
 10
91.02926389043226
 20
12.79750245551346
 30
0.0
  0
VERTEX
  5
1632
330
162E
100
AcDbEntity
  8
0
 62
     7
370
     0
100
AcDbVertex
100
AcDb2dVertex
 10
90.99705224763713
 20
12.73996936089543
 30
0.0
  0
VERTEX
  5
1633
330
162E
100
AcDbEntity
  8
0
 62
     7
370
     0
100
AcDbVertex
100
AcDb2dVertex
 10
90.9715585410399
 20
12.6834697949232
 30
0.0
  0
VERTEX
  5
1634
330
162E
100
AcDbEntity
  8
0
 62
     7
370
     0
100
AcDbVertex
100
AcDb2dVertex
 10
90.95484982793227
 20
12.62800375759681
 30
0.0
  0
VERTEX
  5
1635
330
162E
100
AcDbEntity
  8
0
 62
     7
370
     0
100
AcDbVertex
100
AcDb2dVertex
 10
90.94727061786281
 20
12.57253772027042
 30
0.0
  0
VERTEX
  5
1636
330
162E
100
AcDbEntity
  8
0
 62
     7
370
     0
100
AcDbVertex
100
AcDb2dVertex
 10
90.94727061786281
 20
12.51948324978431
 30
0.0
  0
VERTEX
  5
1637
330
162E
100
AcDbEntity
  8
0
 62
     7
370
     0
100
AcDbVertex
100
AcDb2dVertex
 10
90.95484982793227
 20
12.46505074110375
 30
0.0
  0
VERTEX
  5
1638
330
162E
100
AcDbEntity
  8
0
 62
     7
370
     0
100
AcDbVertex
100
AcDb2dVertex
 10
90.9715585410399
 20
12.41509685655515
 30
0.0
  0
VERTEX
  5
1639
330
162E
100
AcDbEntity
  8
0
 62
     7
370
     0
100
AcDbVertex
100
AcDb2dVertex
 10
90.99601871899128
 20
12.3675545388468
 30
0.0
  0
VERTEX
  5
163A
330
162E
100
AcDbEntity
  8
0
 62
     7
370
     0
100
AcDbVertex
100
AcDb2dVertex
 10
91.02805810701212
 20
12.32207927843015
 30
0.0
  0
VERTEX
  5
163B
330
162E
100
AcDbEntity
  8
0
 62
     7
370
     0
100
AcDbVertex
100
AcDb2dVertex
 10
91.06905474329684
 20
12.28108264214542
 30
0.0
  0
VERTEX
  5
163C
330
162E
100
AcDbEntity
  8
0
 62
     7
370
     0
100
AcDbVertex
100
AcDb2dVertex
 10
91.11573578713365
 20
12.24456462999265
 30
0.0
  0
VERTEX
  5
163D
330
162E
100
AcDbEntity
  8
0
 62
     7
370
     0
100
AcDbVertex
100
AcDb2dVertex
 10
91.16896251239406
 20
12.21011367513154
 30
0.0
  0
VERTEX
  5
163E
330
162E
100
AcDbEntity
  8
0
 62
     7
370
     0
100
AcDbVertex
100
AcDb2dVertex
 10
91.23097423114407
 20
12.18014134440236
 30
0.0
  0
VERTEX
  5
163F
330
162E
100
AcDbEntity
  8
0
 62
     7
370
     0
100
AcDbVertex
100
AcDb2dVertex
 10
91.29643104538017
 20
12.15568116645097
 30
0.0
  0
VERTEX
  5
1640
330
162E
100
AcDbEntity
  8
0
 62
     7
370
     0
100
AcDbVertex
100
AcDb2dVertex
 10
91.36843354103991
 20
12.13466608398571
 30
0.0
  0
VERTEX
  5
1641
330
162E
100
AcDbEntity
  8
0
 62
     7
370
     0
100
AcDbVertex
100
AcDb2dVertex
 10
91.44388113218573
 20
12.1191631542982
 30
0.0
  0
VERTEX
  5
1642
330
162E
100
AcDbEntity
  8
0
 62
     7
370
     0
100
AcDbVertex
100
AcDb2dVertex
 10
91.52363509268921
 20
12.11020590603431
 30
0.0
  0
VERTEX
  5
1643
330
162E
100
AcDbEntity
  8
0
 62
     7
370
     0
100
AcDbVertex
100
AcDb2dVertex
 10
91.60786767732462
 20
12.10469375325653
 30
0.0
  0
VERTEX
  5
1644
330
162E
100
AcDbEntity
  8
0
 62
     7
370
     0
100
AcDbVertex
100
AcDb2dVertex
 10
91.69433957402601
 20
12.10469375325653
 30
0.0
  0
VERTEX
  5
1645
330
162E
100
AcDbEntity
  8
0
 62
     7
370
     0
100
AcDbVertex
100
AcDb2dVertex
 10
91.78201725414753
 20
12.11020590603431
 30
0.0
  0
VERTEX
  5
1646
330
162E
100
AcDbEntity
  8
0
 62
     7
370
     0
100
AcDbVertex
100
AcDb2dVertex
 10
91.8705562081406
 20
12.12019668294402
 30
0.0
  0
VERTEX
  5
1647
330
162E
100
AcDbEntity
  8
0
 62
     7
370
     0
100
AcDbVertex
100
AcDb2dVertex
 10
91.96030094555379
 20
12.13569961263152
 30
0.0
  0
VERTEX
  5
1648
330
162E
100
AcDbEntity
  8
0
 62
     7
370
     0
100
AcDbVertex
100
AcDb2dVertex
 10
92.05021793774127
 20
12.15671469509681
 30
0.0
  0
VERTEX
  5
1649
330
162E
100
AcDbEntity
  8
0
 62
     7
370
     0
100
AcDbVertex
100
AcDb2dVertex
 10
92.13772336308851
 20
12.18220840169403
 30
0.0
  0
VERTEX
  5
164A
330
162E
100
AcDbEntity
  8
0
 62
     7
370
     0
100
AcDbVertex
100
AcDb2dVertex
 10
92.2243675145642
 20
12.21218073242321
 30
0.0
  0
VERTEX
  5
164B
330
162E
100
AcDbEntity
  8
0
 62
     7
370
     0
100
AcDbVertex
100
AcDb2dVertex
 10
92.30842784442531
 20
12.24663168728431
 30
0.0
  0
VERTEX
  5
164C
330
162E
100
AcDbEntity
  8
0
 62
     7
370
     0
100
AcDbVertex
100
AcDb2dVertex
 10
92.38835405970309
 20
12.28418322808292
 30
0.0
  0
VERTEX
  5
164D
330
162E
100
AcDbEntity
  8
0
 62
     7
370
     0
100
AcDbVertex
100
AcDb2dVertex
 10
92.46483517949476
 20
12.32517986436764
 30
0.0
  0
VERTEX
  5
164E
330
162E
100
AcDbEntity
  8
0
 62
     7
370
     0
100
AcDbVertex
100
AcDb2dVertex
 10
92.53580414650866
 20
12.37203316297875
 30
0.0
  0
VERTEX
  5
164F
330
162E
100
AcDbEntity
  8
0
 62
     7
370
     0
100
AcDbVertex
100
AcDb2dVertex
 10
92.60229448939059
 20
12.41957548068709
 30
0.0
  0
VERTEX
  5
1650
330
162E
100
AcDbEntity
  8
0
 62
     7
370
     0
100
AcDbVertex
100
AcDb2dVertex
 10
92.66223915084893
 20
12.4695293652357
 30
0.0
  0
VERTEX
  5
1651
330
162E
100
AcDbEntity
  8
0
 62
     7
370
     0
100
AcDbVertex
100
AcDb2dVertex
 10
92.71649940475517
 20
12.5225838357218
 30
0.0
  0
VERTEX
  5
1652
330
162E
100
AcDbEntity
  8
0
 62
     7
370
     0
100
AcDbVertex
100
AcDb2dVertex
 10
92.76300819381768
 20
12.57701634440236
 30
0.0
  0
VERTEX
  5
1653
330
162E
100
AcDbEntity
  8
0
 62
     7
370
     0
100
AcDbVertex
100
AcDb2dVertex
 10
92.8041770848767
 20
12.63248238172875
 30
0.0
  0
VERTEX
  5
1654
330
162E
100
AcDbEntity
  8
0
 62
     7
370
     0
100
AcDbVertex
100
AcDb2dVertex
 10
92.83501068947741
 20
12.68898194770097
 30
0.0
  0
VERTEX
  5
1655
330
162E
100
AcDbEntity
  8
0
 62
     7
370
     0
100
AcDbVertex
100
AcDb2dVertex
 10
92.86050439607462
 20
12.74444798502736
 30
0.0
  0
VERTEX
  5
1656
330
162E
100
AcDbEntity
  8
0
 62
     7
370
     0
100
AcDbVertex
100
AcDb2dVertex
 10
92.87738536395655
 20
12.80198107964543
 30
0.0
  0
VERTEX
  5
1657
330
162E
100
AcDbEntity
  8
0
 62
     7
370
     0
100
AcDbVertex
100
AcDb2dVertex
 10
92.88496457402601
 20
12.85641358832598
 30
0.0
  0
VERTEX
  5
1658
330
162E
100
AcDbEntity
  8
0
 62
     7
370
     0
100
AcDbVertex
100
AcDb2dVertex
 10
92.88496457402601
 20
12.91050158745793
 30
0.0
  0
VERTEX
  5
1659
330
162E
100
AcDbEntity
  8
0
 62
     7
370
     0
100
AcDbVertex
100
AcDb2dVertex
 10
92.87738536395655
 20
12.96286703884681
 30
0.0
  0
VERTEX
  5
165A
330
162E
100
AcDbEntity
  8
0
 62
     7
370
     0
100
AcDbVertex
100
AcDb2dVertex
 10
92.85947086742877
 20
13.01385445204124
 30
0.0
  0
VERTEX
  5
165B
330
162E
100
AcDbEntity
  8
0
 62
     7
370
     0
100
AcDbVertex
100
AcDb2dVertex
 10
92.83501068947741
 20
13.06139676974959
 30
0.0
  0
VERTEX
  5
165C
330
162E
100
AcDbEntity
  8
0
 62
     7
370
     0
100
AcDbVertex
100
AcDb2dVertex
 10
92.80297130145656
 20
13.10583850152042
 30
0.0
  0
VERTEX
  5
165D
330
162E
100
AcDbEntity
  8
0
 62
     7
370
     0
100
AcDbVertex
100
AcDb2dVertex
 10
92.76197466517185
 20
13.14786866645097
 30
0.0
  0
VERTEX
  5
165E
330
162E
100
AcDbEntity
  8
0
 62
     7
370
     0
100
AcDbVertex
100
AcDb2dVertex
 10
92.71546587610934
 20
13.18576471679819
 30
0.0
  0
SEQEND
  5
165F
330
162E
100
AcDbEntity
  8
0
 62
     7
370
     0
  0
POLYLINE
  5
1660
330
156B
100
AcDbEntity
  8
0
 62
     7
370
     0
100
AcDb2dPolyline
 66
     1
 10
0.0
 20
0.0
 30
0.0
  0
VERTEX
  5
1661
330
1660
100
AcDbEntity
  8
0
 62
     7
370
     0
100
AcDbVertex
100
AcDb2dVertex
 10
91.11676931577948
 20
13.56920384440236
 30
0.0
  0
VERTEX
  5
1662
330
1660
100
AcDbEntity
  8
0
 62
     7
370
     0
100
AcDbVertex
100
AcDb2dVertex
 10
91.06905474329684
 20
13.51580486436765
 30
0.0
  0
VERTEX
  5
1663
330
1660
100
AcDbEntity
  8
0
 62
     7
370
     0
100
AcDbVertex
100
AcDb2dVertex
 10
91.02926389043226
 20
13.46068333658986
 30
0.0
  0
VERTEX
  5
1664
330
1660
100
AcDbEntity
  8
0
 62
     7
370
     0
100
AcDbVertex
100
AcDb2dVertex
 10
90.99705224763713
 20
13.40418377061763
 30
0.0
  0
VERTEX
  5
1665
330
1660
100
AcDbEntity
  8
0
 62
     7
370
     0
100
AcDbVertex
100
AcDb2dVertex
 10
90.9715585410399
 20
13.34837322374264
 30
0.0
  0
VERTEX
  5
1666
330
1660
100
AcDbEntity
  8
0
 62
     7
370
     0
100
AcDbVertex
100
AcDb2dVertex
 10
90.95484982793227
 20
13.29187365777042
 30
0.0
  0
VERTEX
  5
1667
330
1660
100
AcDbEntity
  8
0
 62
     7
370
     0
100
AcDbVertex
100
AcDb2dVertex
 10
90.94727061786281
 20
13.2353740917982
 30
0.0
  0
VERTEX
  5
1668
330
1660
100
AcDbEntity
  8
0
 62
     7
370
     0
100
AcDbVertex
100
AcDb2dVertex
 10
90.94727061786281
 20
13.18231962131209
 30
0.0
  0
VERTEX
  5
1669
330
1660
100
AcDbEntity
  8
0
 62
     7
370
     0
100
AcDbVertex
100
AcDb2dVertex
 10
90.95484982793227
 20
13.12995416992319
 30
0.0
  0
VERTEX
  5
166A
330
1660
100
AcDbEntity
  8
0
 62
     7
370
     0
100
AcDbVertex
100
AcDb2dVertex
 10
90.9715585410399
 20
13.07896675672876
 30
0.0
  0
VERTEX
  5
166B
330
1660
100
AcDbEntity
  8
0
 62
     7
370
     0
100
AcDbVertex
100
AcDb2dVertex
 10
90.99601871899128
 20
13.03142443902041
 30
0.0
  0
VERTEX
  5
166C
330
1660
100
AcDbEntity
  8
0
 62
     7
370
     0
100
AcDbVertex
100
AcDb2dVertex
 10
91.02805810701212
 20
12.98594917860376
 30
0.0
  0
VERTEX
  5
166D
330
1660
100
AcDbEntity
  8
0
 62
     7
370
     0
100
AcDbVertex
100
AcDb2dVertex
 10
91.06905474329684
 20
12.94495254231903
 30
0.0
  0
VERTEX
  5
166E
330
1660
100
AcDbEntity
  8
0
 62
     7
370
     0
100
AcDbVertex
100
AcDb2dVertex
 10
91.11573578713365
 20
12.90740100152041
 30
0.0
  0
VERTEX
  5
166F
330
1660
100
AcDbEntity
  8
0
 62
     7
370
     0
100
AcDbVertex
100
AcDb2dVertex
 10
91.16896251239406
 20
12.87398357530515
 30
0.0
  0
VERTEX
  5
1670
330
1660
100
AcDbEntity
  8
0
 62
     7
370
     0
100
AcDbVertex
100
AcDb2dVertex
 10
91.23097423114407
 20
12.84401124457597
 30
0.0
  0
VERTEX
  5
1671
330
1660
100
AcDbEntity
  8
0
 62
     7
370
     0
100
AcDbVertex
100
AcDb2dVertex
 10
91.29643104538017
 20
12.81851753797875
 30
0.0
  0
VERTEX
  5
1672
330
1660
100
AcDbEntity
  8
0
 62
     7
370
     0
100
AcDbVertex
100
AcDb2dVertex
 10
91.36843354103991
 20
12.79853598415931
 30
0.0
  0
VERTEX
  5
1673
330
1660
100
AcDbEntity
  8
0
 62
     7
370
     0
100
AcDbVertex
100
AcDb2dVertex
 10
91.44388113218573
 20
12.78303305447181
 30
0.0
  0
VERTEX
  5
1674
330
1660
100
AcDbEntity
  8
0
 62
     7
370
     0
100
AcDbVertex
100
AcDb2dVertex
 10
91.52363509268921
 20
12.77304227756208
 30
0.0
  0
VERTEX
  5
1675
330
1660
100
AcDbEntity
  8
0
 62
     7
370
     0
100
AcDbVertex
100
AcDb2dVertex
 10
91.60786767732462
 20
12.76753012478431
 30
0.0
  0
VERTEX
  5
1676
330
1660
100
AcDbEntity
  8
0
 62
     7
370
     0
100
AcDbVertex
100
AcDb2dVertex
 10
91.69433957402601
 20
12.76856365343013
 30
0.0
  0
VERTEX
  5
1677
330
1660
100
AcDbEntity
  8
0
 62
     7
370
     0
100
AcDbVertex
100
AcDb2dVertex
 10
91.78201725414753
 20
12.77442031575653
 30
0.0
  0
VERTEX
  5
1678
330
1660
100
AcDbEntity
  8
0
 62
     7
370
     0
100
AcDbVertex
100
AcDb2dVertex
 10
91.8705562081406
 20
12.78441109266626
 30
0.0
  0
VERTEX
  5
1679
330
1660
100
AcDbEntity
  8
0
 62
     7
370
     0
100
AcDbVertex
100
AcDb2dVertex
 10
91.96030094555379
 20
12.80094755099958
 30
0.0
  0
VERTEX
  5
167A
330
1660
100
AcDbEntity
  8
0
 62
     7
370
     0
100
AcDbVertex
100
AcDb2dVertex
 10
92.05021793774127
 20
12.81955106662458
 30
0.0
  0
VERTEX
  5
167B
330
1660
100
AcDbEntity
  8
0
 62
     7
370
     0
100
AcDbVertex
100
AcDb2dVertex
 10
92.13772336308851
 20
12.84642281141626
 30
0.0
  0
VERTEX
  5
167C
330
1660
100
AcDbEntity
  8
0
 62
     7
370
     0
100
AcDbVertex
100
AcDb2dVertex
 10
92.2243675145642
 20
12.87639514214541
 30
0.0
  0
VERTEX
  5
167D
330
1660
100
AcDbEntity
  8
0
 62
     7
370
     0
100
AcDbVertex
100
AcDb2dVertex
 10
92.30842784442531
 20
12.90946805881208
 30
0.0
  0
VERTEX
  5
167E
330
1660
100
AcDbEntity
  8
0
 62
     7
370
     0
100
AcDbVertex
100
AcDb2dVertex
 10
92.38835405970309
 20
12.94736410915931
 30
0.0
  0
VERTEX
  5
167F
330
1660
100
AcDbEntity
  8
0
 62
     7
370
     0
100
AcDbVertex
100
AcDb2dVertex
 10
92.46483517949476
 20
12.99042780273569
 30
0.0
  0
VERTEX
  5
1680
330
1660
100
AcDbEntity
  8
0
 62
     7
370
     0
100
AcDbVertex
100
AcDb2dVertex
 10
92.53580414650866
 20
13.03486953450653
 30
0.0
  0
VERTEX
  5
1681
330
1660
100
AcDbEntity
  8
0
 62
     7
370
     0
100
AcDbVertex
100
AcDb2dVertex
 10
92.60229448939059
 20
13.0837898904093
 30
0.0
  0
VERTEX
  5
1682
330
1660
100
AcDbEntity
  8
0
 62
     7
370
     0
100
AcDbVertex
100
AcDb2dVertex
 10
92.66223915084893
 20
13.13339926540931
 30
0.0
  0
VERTEX
  5
1683
330
1660
100
AcDbEntity
  8
0
 62
     7
370
     0
100
AcDbVertex
100
AcDb2dVertex
 10
92.71649940475517
 20
13.18679824544404
 30
0.0
  0
VERTEX
  5
1684
330
1660
100
AcDbEntity
  8
0
 62
     7
370
     0
100
AcDbVertex
100
AcDb2dVertex
 10
92.76300819381768
 20
13.23985271593014
 30
0.0
  0
VERTEX
  5
1685
330
1660
100
AcDbEntity
  8
0
 62
     7
370
     0
100
AcDbVertex
100
AcDb2dVertex
 10
92.8041770848767
 20
13.29531875325654
 30
0.0
  0
VERTEX
  5
1686
330
1660
100
AcDbEntity
  8
0
 62
     7
370
     0
100
AcDbVertex
100
AcDb2dVertex
 10
92.83501068947741
 20
13.35285184787459
 30
0.0
  0
VERTEX
  5
1687
330
1660
100
AcDbEntity
  8
0
 62
     7
370
     0
100
AcDbVertex
100
AcDb2dVertex
 10
92.86050439607462
 20
13.40831788520097
 30
0.0
  0
VERTEX
  5
1688
330
1660
100
AcDbEntity
  8
0
 62
     7
370
     0
100
AcDbVertex
100
AcDb2dVertex
 10
92.87738536395655
 20
13.46481745117319
 30
0.0
  0
VERTEX
  5
1689
330
1660
100
AcDbEntity
  8
0
 62
     7
370
     0
100
AcDbVertex
100
AcDb2dVertex
 10
92.88496457402601
 20
13.52028348849958
 30
0.0
  0
VERTEX
  5
168A
330
1660
100
AcDbEntity
  8
0
 62
     7
370
     0
100
AcDbVertex
100
AcDb2dVertex
 10
92.88496457402601
 20
13.57368246853431
 30
0.0
  0
VERTEX
  5
168B
330
1660
100
AcDbEntity
  8
0
 62
     7
370
     0
100
AcDbVertex
100
AcDb2dVertex
 10
92.87738536395655
 20
13.62673693902042
 30
0.0
  0
VERTEX
  5
168C
330
1660
100
AcDbEntity
  8
0
 62
     7
370
     0
100
AcDbVertex
100
AcDb2dVertex
 10
92.85947086742877
 20
13.67669082356903
 30
0.0
  0
VERTEX
  5
168D
330
1660
100
AcDbEntity
  8
0
 62
     7
370
     0
100
AcDbVertex
100
AcDb2dVertex
 10
92.83501068947741
 20
13.72319961263153
 30
0.0
  0
VERTEX
  5
168E
330
1660
100
AcDbEntity
  8
0
 62
     7
370
     0
100
AcDbVertex
100
AcDb2dVertex
 10
92.80297130145656
 20
13.7686748730482
 30
0.0
  0
VERTEX
  5
168F
330
1660
100
AcDbEntity
  8
0
 62
     7
370
     0
100
AcDbVertex
100
AcDb2dVertex
 10
92.76197466517185
 20
13.80967150933293
 30
0.0
  0
VERTEX
  5
1690
330
1660
100
AcDbEntity
  8
0
 62
     7
370
     0
100
AcDbVertex
100
AcDb2dVertex
 10
92.71546587610934
 20
13.84756755968014
 30
0.0
  0
SEQEND
  5
1691
330
1660
100
AcDbEntity
  8
0
 62
     7
370
     0
  0
LINE
  5
1692
330
156B
100
AcDbEntity
  8
0
 62
     7
370
     0
100
AcDbLine
 10
89.95715017515449
 20
11.53487495985375
 30
0.0
 11
89.95715017515449
 21
10.7087410622843
 31
0.0
  0
POLYLINE
  5
1693
330
156B
100
AcDbEntity
  8
0
 62
     7
370
     0
100
AcDb2dPolyline
 66
     1
 10
0.0
 20
0.0
 30
0.0
  0
VERTEX
  5
1694
330
1693
100
AcDbEntity
  8
0
 62
     7
370
     0
100
AcDbVertex
100
AcDb2dVertex
 10
89.95715017515449
 20
10.7087410622843
 30
0.0
  0
VERTEX
  5
1695
330
1693
100
AcDbEntity
  8
0
 62
     7
370
     0
100
AcDbVertex
100
AcDb2dVertex
 10
89.95611664650864
 20
10.64914091037458
 30
0.0
  0
VERTEX
  5
1696
330
1693
100
AcDbEntity
  8
0
 62
     7
370
     0
100
AcDbVertex
100
AcDb2dVertex
 10
89.95835595857462
 20
10.58919624891625
 30
0.0
  0
VERTEX
  5
1697
330
1693
100
AcDbEntity
  8
0
 62
     7
370
     0
100
AcDbVertex
100
AcDb2dVertex
 10
89.96266232793226
 20
10.53062962565237
 30
0.0
  0
VERTEX
  5
1698
330
1693
100
AcDbEntity
  8
0
 62
     7
370
     0
100
AcDbVertex
100
AcDb2dVertex
 10
89.96938026413017
 20
10.47068496419402
 30
0.0
  0
VERTEX
  5
1699
330
1693
100
AcDbEntity
  8
0
 62
     7
370
     0
100
AcDbVertex
100
AcDb2dVertex
 10
89.98040456968572
 20
10.41280736002736
 30
0.0
  0
VERTEX
  5
169A
330
1693
100
AcDbEntity
  8
0
 62
     7
370
     0
100
AcDbVertex
100
AcDb2dVertex
 10
89.99160113001559
 20
10.35424073676347
 30
0.0
  0
VERTEX
  5
169B
330
1693
100
AcDbEntity
  8
0
 62
     7
370
     0
100
AcDbVertex
100
AcDb2dVertex
 10
90.00813758834892
 20
10.29774117079125
 30
0.0
  0
VERTEX
  5
169C
330
1693
100
AcDbEntity
  8
0
 62
     7
370
     0
100
AcDbVertex
100
AcDb2dVertex
 10
90.02691335874823
 20
10.24124160481904
 30
0.0
  0
VERTEX
  5
169D
330
1693
100
AcDbEntity
  8
0
 62
     7
370
     0
100
AcDbVertex
100
AcDb2dVertex
 10
90.0481006959878
 20
10.18474203884681
 30
0.0
  0
VERTEX
  5
169E
330
1693
100
AcDbEntity
  8
0
 62
     7
370
     0
100
AcDbVertex
100
AcDb2dVertex
 10
90.07032156187323
 20
10.13030953016624
 30
0.0
  0
VERTEX
  5
169F
330
1693
100
AcDbEntity
  8
0
 62
     7
370
     0
100
AcDbVertex
100
AcDb2dVertex
 10
90.09684879711628
 20
10.07691055013153
 30
0.0
  0
VERTEX
  5
16A0
330
1693
100
AcDbEntity
  8
0
 62
     7
370
     0
100
AcDbVertex
100
AcDb2dVertex
 10
90.1256153444253
 20
10.02488960829126
 30
0.0
  0
VERTEX
  5
16A1
330
1693
100
AcDbEntity
  8
0
 62
     7
370
     0
100
AcDbVertex
100
AcDb2dVertex
 10
90.15662120380032
 20
9.972868666450978
 30
0.0
  0
VERTEX
  5
16A2
330
1693
100
AcDbEntity
  8
0
 62
     7
370
     0
100
AcDbVertex
100
AcDb2dVertex
 10
90.19107215866142
 20
9.923948310548198
 30
0.0
  0
VERTEX
  5
16A3
330
1693
100
AcDbEntity
  8
0
 62
     7
370
     0
100
AcDbVertex
100
AcDb2dVertex
 10
90.22552311352255
 20
9.877439521485698
 30
0.0
  0
VERTEX
  5
16A4
330
1693
100
AcDbEntity
  8
0
 62
     7
370
     0
100
AcDbVertex
100
AcDb2dVertex
 10
90.26324690909545
 20
9.830930732423198
 30
0.0
  0
VERTEX
  5
16A5
330
1693
100
AcDbEntity
  8
0
 62
     7
370
     0
100
AcDbVertex
100
AcDb2dVertex
 10
90.30424354538018
 20
9.786489000652366
 30
0.0
  0
VERTEX
  5
16A6
330
1693
100
AcDbEntity
  8
0
 62
     7
370
     0
100
AcDbVertex
100
AcDb2dVertex
 10
90.34627371031072
 20
9.745492364367635
 30
0.0
  0
VERTEX
  5
16A7
330
1693
100
AcDbEntity
  8
0
 62
     7
370
     0
100
AcDbVertex
100
AcDb2dVertex
 10
90.39071544208157
 20
9.704495728082918
 30
0.0
  0
VERTEX
  5
16A8
330
1693
100
AcDbEntity
  8
0
 62
     7
370
     0
100
AcDbVertex
100
AcDb2dVertex
 10
90.43601844772393
 20
9.666944187284315
 30
0.0
  0
VERTEX
  5
16A9
330
1693
100
AcDbEntity
  8
0
 62
     7
370
     0
100
AcDbVertex
100
AcDb2dVertex
 10
90.48373302020657
 20
9.631459703777366
 30
0.0
  0
VERTEX
  5
16AA
330
1693
100
AcDbEntity
  8
0
 62
     7
370
     0
100
AcDbVertex
100
AcDb2dVertex
 10
90.53368690475517
 20
9.598042277562086
 30
0.0
  0
SEQEND
  5
16AB
330
1693
100
AcDbEntity
  8
0
 62
     7
370
     0
  0
LINE
  5
16AC
330
156B
100
AcDbEntity
  8
0
 62
     7
370
     0
100
AcDbLine
 10
91.14002371031073
 20
12.59010770724958
 30
0.0
 11
91.14002371031073
 21
12.89086454318709
 31
0.0
  0
LINE
  5
16AD
330
156B
100
AcDbEntity
  8
0
 62
     7
370
     0
100
AcDbLine
 10
92.90821896855726
 20
11.53487495985375
 30
0.0
 11
92.90821896855726
 21
12.05026124457598
 31
0.0
  0
LINE
  5
16AE
330
156B
100
AcDbEntity
  8
0
 62
     7
370
     0
100
AcDbLine
 10
90.92384396855726
 20
11.53487495985375
 30
0.0
 11
90.92384396855726
 21
12.05026124457598
 31
0.0
  0
LINE
  5
16AF
330
156B
100
AcDbEntity
  8
0
 62
     7
370
     0
100
AcDbLine
 10
91.12676009268922
 20
12.00926460829126
 30
0.0
 11
91.12676009268922
 21
12.23560738172875
 31
0.0
  0
LINE
  5
16B0
330
156B
100
AcDbEntity
  8
0
 62
     7
370
     0
100
AcDbLine
 10
92.70426931577949
 20
12.09263591905514
 30
0.0
 11
92.70426931577949
 21
12.51155953016625
 31
0.0
  0
POLYLINE
  5
16B1
330
156B
100
AcDbEntity
  8
0
 62
     7
370
     0
100
AcDb2dPolyline
 66
     1
 10
0.0
 20
0.0
 30
0.0
  0
VERTEX
  5
16B2
330
16B1
100
AcDbEntity
  8
0
 62
     7
370
     0
100
AcDbVertex
100
AcDb2dVertex
 10
90.92384396855726
 20
11.53487495985375
 30
0.0
  0
VERTEX
  5
16B3
330
16B1
100
AcDbEntity
  8
0
 62
     7
370
     0
100
AcDbVertex
100
AcDb2dVertex
 10
90.9283225926892
 20
11.48147597981904
 30
0.0
  0
VERTEX
  5
16B4
330
16B1
100
AcDbEntity
  8
0
 62
     7
370
     0
100
AcDbVertex
100
AcDb2dVertex
 10
90.9405526816649
 20
11.42842150933292
 30
0.0
  0
VERTEX
  5
16B5
330
16B1
100
AcDbEntity
  8
0
 62
     7
370
     0
100
AcDbVertex
100
AcDb2dVertex
 10
90.96156776413018
 20
11.37743409613847
 30
0.0
  0
VERTEX
  5
16B6
330
16B1
100
AcDbEntity
  8
0
 62
     7
370
     0
100
AcDbVertex
100
AcDb2dVertex
 10
90.9903343114392
 20
11.32748021158985
 30
0.0
  0
VERTEX
  5
16B7
330
16B1
100
AcDbEntity
  8
0
 62
     7
370
     0
100
AcDbVertex
100
AcDb2dVertex
 10
91.02702457836628
 20
11.27993789388153
 30
0.0
  0
VERTEX
  5
16B8
330
16B1
100
AcDbEntity
  8
0
 62
     7
370
     0
100
AcDbVertex
100
AcDb2dVertex
 10
91.07232758400865
 20
11.23205106662459
 30
0.0
  0
VERTEX
  5
16B9
330
16B1
100
AcDbEntity
  8
0
 62
     7
370
     0
100
AcDbVertex
100
AcDb2dVertex
 10
91.12452078062323
 20
11.1889873730482
 30
0.0
  0
VERTEX
  5
16BA
330
16B1
100
AcDbEntity
  8
0
 62
     7
370
     0
100
AcDbVertex
100
AcDb2dVertex
 10
91.1822261300156
 20
11.14799073676347
 30
0.0
  0
VERTEX
  5
16BB
330
16B1
100
AcDbEntity
  8
0
 62
     7
370
     0
100
AcDbVertex
100
AcDb2dVertex
 10
91.24751068947739
 20
11.1114727246107
 30
0.0
  0
VERTEX
  5
16BC
330
16B1
100
AcDbEntity
  8
0
 62
     7
370
     0
100
AcDbVertex
100
AcDb2dVertex
 10
91.31744612784546
 20
11.07702176974959
 30
0.0
  0
VERTEX
  5
16BD
330
16B1
100
AcDbEntity
  8
0
 62
     7
370
     0
100
AcDbVertex
100
AcDb2dVertex
 10
91.39392724763713
 20
11.04704943902041
 30
0.0
  0
VERTEX
  5
16BE
330
16B1
100
AcDbEntity
  8
0
 62
     7
370
     0
100
AcDbVertex
100
AcDb2dVertex
 10
91.47385346291491
 20
11.02155573242319
 30
0.0
  0
VERTEX
  5
16BF
330
16B1
100
AcDbEntity
  8
0
 62
     7
370
     0
100
AcDbVertex
100
AcDb2dVertex
 10
91.557913792776
 20
11.00054064995791
 30
0.0
  0
VERTEX
  5
16C0
330
16B1
100
AcDbEntity
  8
0
 62
     7
370
     0
100
AcDbVertex
100
AcDb2dVertex
 10
91.64455794425171
 20
10.98400419162459
 30
0.0
  0
VERTEX
  5
16C1
330
16B1
100
AcDbEntity
  8
0
 62
     7
370
     0
100
AcDbVertex
100
AcDb2dVertex
 10
91.73326915301906
 20
10.97160184787458
 30
0.0
  0
VERTEX
  5
16C2
330
16B1
100
AcDbEntity
  8
0
 62
     7
370
     0
100
AcDbVertex
100
AcDb2dVertex
 10
91.82404741907809
 20
10.96402263780514
 30
0.0
  0
VERTEX
  5
16C3
330
16B1
100
AcDbEntity
  8
0
 62
     7
370
     0
100
AcDbVertex
100
AcDb2dVertex
 10
91.91603146855726
 20
10.96161107096486
 30
0.0
  0
VERTEX
  5
16C4
330
16B1
100
AcDbEntity
  8
0
 62
     7
370
     0
100
AcDbVertex
100
AcDb2dVertex
 10
92.00698198939059
 20
10.96402263780514
 30
0.0
  0
VERTEX
  5
16C5
330
16B1
100
AcDbEntity
  8
0
 62
     7
370
     0
100
AcDbVertex
100
AcDb2dVertex
 10
92.09793251022393
 20
10.97160184787458
 30
0.0
  0
VERTEX
  5
16C6
330
16B1
100
AcDbEntity
  8
0
 62
     7
370
     0
100
AcDbVertex
100
AcDb2dVertex
 10
92.18767724763713
 20
10.98400419162459
 30
0.0
  0
VERTEX
  5
16C7
330
16B1
100
AcDbEntity
  8
0
 62
     7
370
     0
100
AcDbVertex
100
AcDb2dVertex
 10
92.2741491443385
 20
11.00054064995791
 30
0.0
  0
VERTEX
  5
16C8
330
16B1
100
AcDbEntity
  8
0
 62
     7
370
     0
100
AcDbVertex
100
AcDb2dVertex
 10
92.35838172897393
 20
11.02155573242319
 30
0.0
  0
VERTEX
  5
16C9
330
16B1
100
AcDbEntity
  8
0
 62
     7
370
     0
100
AcDbVertex
100
AcDb2dVertex
 10
92.4383079442517
 20
11.04704943902041
 30
0.0
  0
VERTEX
  5
16CA
330
16B1
100
AcDbEntity
  8
0
 62
     7
370
     0
100
AcDbVertex
100
AcDb2dVertex
 10
92.51358328062323
 20
11.07702176974959
 30
0.0
  0
VERTEX
  5
16CB
330
16B1
100
AcDbEntity
  8
0
 62
     7
370
     0
100
AcDbVertex
100
AcDb2dVertex
 10
92.58455224763713
 20
11.1114727246107
 30
0.0
  0
VERTEX
  5
16CC
330
16B1
100
AcDbEntity
  8
0
 62
     7
370
     0
100
AcDbVertex
100
AcDb2dVertex
 10
92.6489755332274
 20
11.14799073676347
 30
0.0
  0
VERTEX
  5
16CD
330
16B1
100
AcDbEntity
  8
0
 62
     7
370
     0
100
AcDbVertex
100
AcDb2dVertex
 10
92.70754215649128
 20
11.1889873730482
 30
0.0
  0
VERTEX
  5
16CE
330
16B1
100
AcDbEntity
  8
0
 62
     7
370
     0
100
AcDbVertex
100
AcDb2dVertex
 10
92.75852956968574
 20
11.23205106662459
 30
0.0
  0
VERTEX
  5
16CF
330
16B1
100
AcDbEntity
  8
0
 62
     7
370
     0
100
AcDbVertex
100
AcDb2dVertex
 10
92.8041770848767
 20
11.27993789388153
 30
0.0
  0
VERTEX
  5
16D0
330
16B1
100
AcDbEntity
  8
0
 62
     7
370
     0
100
AcDbVertex
100
AcDb2dVertex
 10
92.84069509702948
 20
11.32748021158985
 30
0.0
  0
VERTEX
  5
16D1
330
16B1
100
AcDbEntity
  8
0
 62
     7
370
     0
100
AcDbVertex
100
AcDb2dVertex
 10
92.87066742775865
 20
11.37743409613847
 30
0.0
  0
VERTEX
  5
16D2
330
16B1
100
AcDbEntity
  8
0
 62
     7
370
     0
100
AcDbVertex
100
AcDb2dVertex
 10
92.89168251022394
 20
11.42842150933292
 30
0.0
  0
VERTEX
  5
16D3
330
16B1
100
AcDbEntity
  8
0
 62
     7
370
     0
100
AcDbVertex
100
AcDb2dVertex
 10
92.90391259919962
 20
11.48147597981904
 30
0.0
  0
VERTEX
  5
16D4
330
16B1
100
AcDbEntity
  8
0
 62
     7
370
     0
100
AcDbVertex
100
AcDb2dVertex
 10
92.90821896855726
 20
11.53487495985375
 30
0.0
  0
SEQEND
  5
16D5
330
16B1
100
AcDbEntity
  8
0
 62
     7
370
     0
  0
POLYLINE
  5
16D6
330
156B
100
AcDbEntity
  8
0
 62
     7
370
     0
100
AcDb2dPolyline
 66
     1
 10
0.0
 20
0.0
 30
0.0
  0
VERTEX
  5
16D7
330
16D6
100
AcDbEntity
  8
0
 62
     7
370
     0
100
AcDbVertex
100
AcDb2dVertex
 10
91.14002371031073
 20
12.60354357964542
 30
0.0
  0
VERTEX
  5
16D8
330
16D6
100
AcDbEntity
  8
0
 62
     7
370
     0
100
AcDbVertex
100
AcDb2dVertex
 10
91.14226302237671
 20
12.55600126193708
 30
0.0
  0
VERTEX
  5
16D9
330
16D6
100
AcDbEntity
  8
0
 62
     7
370
     0
100
AcDbVertex
100
AcDb2dVertex
 10
91.1544931113524
 20
12.51052600152042
 30
0.0
  0
VERTEX
  5
16DA
330
16D6
100
AcDbEntity
  8
0
 62
     7
370
     0
100
AcDbVertex
100
AcDb2dVertex
 10
91.17326888175171
 20
12.46608426974958
 30
0.0
  0
VERTEX
  5
16DB
330
16D6
100
AcDbEntity
  8
0
 62
     7
370
     0
100
AcDbVertex
100
AcDb2dVertex
 10
91.20100190041489
 20
12.42508763346487
 30
0.0
  0
VERTEX
  5
16DC
330
16D6
100
AcDbEntity
  8
0
 62
     7
370
     0
100
AcDbVertex
100
AcDb2dVertex
 10
91.23545285527601
 20
12.38753609266625
 30
0.0
  0
VERTEX
  5
16DD
330
16D6
100
AcDbEntity
  8
0
 62
     7
370
     0
100
AcDbVertex
100
AcDb2dVertex
 10
91.27851654885239
 20
12.35308513780515
 30
0.0
  0
VERTEX
  5
16DE
330
16D6
100
AcDbEntity
  8
0
 62
     7
370
     0
100
AcDbVertex
100
AcDb2dVertex
 10
91.32847043340101
 20
12.32207927843015
 30
0.0
  0
VERTEX
  5
16DF
330
16D6
100
AcDbEntity
  8
0
 62
     7
370
     0
100
AcDbVertex
100
AcDb2dVertex
 10
91.3839364707274
 20
12.29555204318709
 30
0.0
  0
VERTEX
  5
16E0
330
16D6
100
AcDbEntity
  8
0
 62
     7
370
     0
100
AcDbVertex
100
AcDb2dVertex
 10
91.44491466083156
 20
12.27315892252736
 30
0.0
  0
VERTEX
  5
16E1
330
16D6
100
AcDbEntity
  8
0
 62
     7
370
     0
100
AcDbVertex
100
AcDb2dVertex
 10
91.51140500371351
 20
12.25662246419404
 30
0.0
  0
VERTEX
  5
16E2
330
16D6
100
AcDbEntity
  8
0
 62
     7
370
     0
100
AcDbVertex
100
AcDb2dVertex
 10
91.5823739707274
 20
12.24559815863847
 30
0.0
  0
VERTEX
  5
16E3
330
16D6
100
AcDbEntity
  8
0
 62
     7
370
     0
100
AcDbVertex
100
AcDb2dVertex
 10
91.65661577845309
 20
12.23767443902042
 30
0.0
  0
VERTEX
  5
16E4
330
16D6
100
AcDbEntity
  8
0
 62
     7
370
     0
100
AcDbVertex
100
AcDb2dVertex
 10
91.73430268166489
 20
12.23560738172875
 30
0.0
  0
VERTEX
  5
16E5
330
16D6
100
AcDbEntity
  8
0
 62
     7
370
     0
100
AcDbVertex
100
AcDb2dVertex
 10
91.81405664216837
 20
12.23870796766624
 30
0.0
  0
VERTEX
  5
16E6
330
16D6
100
AcDbEntity
  8
0
 62
     7
370
     0
100
AcDbVertex
100
AcDb2dVertex
 10
91.89381060267185
 20
12.24766521593014
 30
0.0
  0
VERTEX
  5
16E7
330
16D6
100
AcDbEntity
  8
0
 62
     7
370
     0
100
AcDbVertex
100
AcDb2dVertex
 10
91.97494260136975
 20
12.26006755968015
 30
0.0
  0
VERTEX
  5
16E8
330
16D6
100
AcDbEntity
  8
0
 62
     7
370
     0
100
AcDbVertex
100
AcDb2dVertex
 10
92.05469656187323
 20
12.27867107530514
 30
0.0
  0
VERTEX
  5
16E9
330
16D6
100
AcDbEntity
  8
0
 62
     7
370
     0
100
AcDbVertex
100
AcDb2dVertex
 10
92.13221121031073
 20
12.30209772461069
 30
0.0
  0
VERTEX
  5
16EA
330
16D6
100
AcDbEntity
  8
0
 62
     7
370
     0
100
AcDbVertex
100
AcDb2dVertex
 10
92.20886458487671
 20
12.32862495985375
 30
0.0
  0
VERTEX
  5
16EB
330
16D6
100
AcDbEntity
  8
0
 62
     7
370
     0
100
AcDbVertex
100
AcDb2dVertex
 10
92.28190060918226
 20
12.36066434787459
 30
0.0
  0
VERTEX
  5
16EC
330
16D6
100
AcDbEntity
  8
0
 62
     7
370
     0
100
AcDbVertex
100
AcDb2dVertex
 10
92.35063026413017
 20
12.39511530273569
 30
0.0
  0
VERTEX
  5
16ED
330
16D6
100
AcDbEntity
  8
0
 62
     7
370
     0
100
AcDbVertex
100
AcDb2dVertex
 10
92.41505354972046
 20
12.43404488172875
 30
0.0
  0
VERTEX
  5
16EE
330
16D6
100
AcDbEntity
  8
0
 62
     7
370
     0
100
AcDbVertex
100
AcDb2dVertex
 10
92.47482595640448
 20
12.4760750466593
 30
0.0
  0
VERTEX
  5
16EF
330
16D6
100
AcDbEntity
  8
0
 62
     7
370
     0
100
AcDbVertex
100
AcDb2dVertex
 10
92.5280526816649
 20
12.52051677843013
 30
0.0
  0
VERTEX
  5
16F0
330
16D6
100
AcDbEntity
  8
0
 62
     7
370
     0
100
AcDbVertex
100
AcDb2dVertex
 10
92.57352794208157
 20
12.56702556749263
 30
0.0
  0
VERTEX
  5
16F1
330
16D6
100
AcDbEntity
  8
0
 62
     7
370
     0
100
AcDbVertex
100
AcDb2dVertex
 10
92.61331879494616
 20
12.61456788520098
 30
0.0
  0
VERTEX
  5
16F2
330
16D6
100
AcDbEntity
  8
0
 62
     7
370
     0
100
AcDbVertex
100
AcDb2dVertex
 10
92.64449690909545
 20
12.66452176974958
 30
0.0
  0
VERTEX
  5
16F3
330
16D6
100
AcDbEntity
  8
0
 62
     7
370
     0
100
AcDbVertex
100
AcDb2dVertex
 10
92.66878483227253
 20
12.71344212565236
 30
0.0
  0
VERTEX
  5
16F4
330
16D6
100
AcDbEntity
  8
0
 62
     7
370
     0
100
AcDbVertex
100
AcDb2dVertex
 10
92.68549354538018
 20
12.76305150065236
 30
0.0
  0
VERTEX
  5
16F5
330
16D6
100
AcDbEntity
  8
0
 62
     7
370
     0
100
AcDbVertex
100
AcDb2dVertex
 10
92.69100569815796
 20
12.81197185655514
 30
0.0
  0
SEQEND
  5
16F6
330
16D6
100
AcDbEntity
  8
0
 62
     7
370
     0
  0
POLYLINE
  5
16F7
330
156B
100
AcDbEntity
  8
0
 62
     7
370
     0
100
AcDb2dPolyline
 66
     1
 10
0.0
 20
0.0
 30
0.0
  0
VERTEX
  5
16F8
330
16F7
100
AcDbEntity
  8
0
 62
     7
370
     0
100
AcDbVertex
100
AcDb2dVertex
 10
91.03477604321003
 20
12.31518908745792
 30
0.0
  0
VERTEX
  5
16F9
330
16F7
100
AcDbEntity
  8
0
 62
     7
370
     0
100
AcDbVertex
100
AcDb2dVertex
 10
90.99705224763713
 20
12.26661324110375
 30
0.0
  0
VERTEX
  5
16FA
330
16F7
100
AcDbEntity
  8
0
 62
     7
370
     0
100
AcDbVertex
100
AcDb2dVertex
 10
90.96604638826212
 20
12.21665935655514
 30
0.0
  0
VERTEX
  5
16FB
330
16F7
100
AcDbEntity
  8
0
 62
     7
370
     0
100
AcDbVertex
100
AcDb2dVertex
 10
90.9438255223767
 20
12.16463841471486
 30
0.0
  0
VERTEX
  5
16FC
330
16F7
100
AcDbEntity
  8
0
 62
     7
370
     0
100
AcDbVertex
100
AcDb2dVertex
 10
90.92935612133503
 20
12.11227296332598
 30
0.0
  0
VERTEX
  5
16FD
330
16F7
100
AcDbEntity
  8
0
 62
     7
370
     0
100
AcDbVertex
100
AcDb2dVertex
 10
90.92384396855726
 20
12.05921849283986
 30
0.0
  0
VERTEX
  5
16FE
330
16F7
100
AcDbEntity
  8
0
 62
     7
370
     0
100
AcDbVertex
100
AcDb2dVertex
 10
90.92711680926907
 20
12.00616402235374
 30
0.0
  0
VERTEX
  5
16FF
330
16F7
100
AcDbEntity
  8
0
 62
     7
370
     0
100
AcDbVertex
100
AcDb2dVertex
 10
90.93831336959892
 20
11.95276504231903
 30
0.0
  0
VERTEX
  5
1700
330
16F7
100
AcDbEntity
  8
0
 62
     7
370
     0
100
AcDbVertex
100
AcDb2dVertex
 10
90.95726139477253
 20
11.90177762912458
 30
0.0
  0
VERTEX
  5
1701
330
16F7
100
AcDbEntity
  8
0
 62
     7
370
     0
100
AcDbVertex
100
AcDb2dVertex
 10
90.98602794208156
 20
11.8497566872843
 30
0.0
  0
VERTEX
  5
1702
330
16F7
100
AcDbEntity
  8
0
 62
     7
370
     0
100
AcDbVertex
100
AcDb2dVertex
 10
91.02254595423435
 20
11.80186986002736
 30
0.0
  0
VERTEX
  5
1703
330
16F7
100
AcDbEntity
  8
0
 62
     7
370
     0
100
AcDbVertex
100
AcDb2dVertex
 10
91.06681543123087
 20
11.75536107096486
 30
0.0
  0
VERTEX
  5
1704
330
16F7
100
AcDbEntity
  8
0
 62
     7
370
     0
100
AcDbVertex
100
AcDb2dVertex
 10
91.11676931577948
 20
11.7098858105482
 30
0.0
  0
VERTEX
  5
1705
330
16F7
100
AcDbEntity
  8
0
 62
     7
370
     0
100
AcDbVertex
100
AcDb2dVertex
 10
91.17550819381767
 20
11.66888917426348
 30
0.0
  0
VERTEX
  5
1706
330
16F7
100
AcDbEntity
  8
0
 62
     7
370
     0
100
AcDbVertex
100
AcDb2dVertex
 10
91.23975922463364
 20
11.63030410481903
 30
0.0
  0
VERTEX
  5
1707
330
16F7
100
AcDbEntity
  8
0
 62
     7
370
     0
100
AcDbVertex
100
AcDb2dVertex
 10
91.3096946630017
 20
11.59688667860375
 30
0.0
  0
VERTEX
  5
1708
330
16F7
100
AcDbEntity
  8
0
 62
     7
370
     0
100
AcDbVertex
100
AcDb2dVertex
 10
91.38514225414754
 20
11.56588081922875
 30
0.0
  0
VERTEX
  5
1709
330
16F7
100
AcDbEntity
  8
0
 62
     7
370
     0
100
AcDbVertex
100
AcDb2dVertex
 10
91.46592974329683
 20
11.54038711263152
 30
0.0
  0
VERTEX
  5
170A
330
16F7
100
AcDbEntity
  8
0
 62
     7
370
     0
100
AcDbVertex
100
AcDb2dVertex
 10
91.55033458270656
 20
11.51833850152041
 30
0.0
  0
VERTEX
  5
170B
330
16F7
100
AcDbEntity
  8
0
 62
     7
370
     0
100
AcDbVertex
100
AcDb2dVertex
 10
91.63663422463365
 20
11.50042400499265
 30
0.0
  0
VERTEX
  5
170C
330
16F7
100
AcDbEntity
  8
0
 62
     7
370
     0
100
AcDbVertex
100
AcDb2dVertex
 10
91.725345433401
 20
11.48836617079125
 30
0.0
  0
VERTEX
  5
170D
330
16F7
100
AcDbEntity
  8
0
 62
     7
370
     0
100
AcDbVertex
100
AcDb2dVertex
 10
91.81732948288019
 20
11.48044245117319
 30
0.0
  0
VERTEX
  5
170E
330
16F7
100
AcDbEntity
  8
0
 62
     7
370
     0
100
AcDbVertex
100
AcDb2dVertex
 10
91.90931353235935
 20
11.47837539388152
 30
0.0
  0
VERTEX
  5
170F
330
16F7
100
AcDbEntity
  8
0
 62
     7
370
     0
100
AcDbVertex
100
AcDb2dVertex
 10
92.00146983661282
 20
11.48044245117319
 30
0.0
  0
VERTEX
  5
1710
330
16F7
100
AcDbEntity
  8
0
 62
     7
370
     0
100
AcDbVertex
100
AcDb2dVertex
 10
92.09242035744614
 20
11.48733264214542
 30
0.0
  0
VERTEX
  5
1711
330
16F7
100
AcDbEntity
  8
0
 62
     7
370
     0
100
AcDbVertex
100
AcDb2dVertex
 10
92.18337087827947
 20
11.49835694770098
 30
0.0
  0
VERTEX
  5
1712
330
16F7
100
AcDbEntity
  8
0
 62
     7
370
     0
100
AcDbVertex
100
AcDb2dVertex
 10
92.27087630362671
 20
11.5148934060343
 30
0.0
  0
VERTEX
  5
1713
330
16F7
100
AcDbEntity
  8
0
 62
     7
370
     0
100
AcDbVertex
100
AcDb2dVertex
 10
92.35407535961629
 20
11.53694201714542
 30
0.0
  0
VERTEX
  5
1714
330
16F7
100
AcDbEntity
  8
0
 62
     7
370
     0
100
AcDbVertex
100
AcDb2dVertex
 10
92.43486284876558
 20
11.5614021950968
 30
0.0
  0
VERTEX
  5
1715
330
16F7
100
AcDbEntity
  8
0
 62
     7
370
     0
100
AcDbVertex
100
AcDb2dVertex
 10
92.51134396855725
 20
11.5924080544718
 30
0.0
  0
VERTEX
  5
1716
330
16F7
100
AcDbEntity
  8
0
 62
     7
370
     0
100
AcDbVertex
100
AcDb2dVertex
 10
92.58231293557114
 20
11.62685900933292
 30
0.0
  0
VERTEX
  5
1717
330
16F7
100
AcDbEntity
  8
0
 62
     7
370
     0
100
AcDbVertex
100
AcDb2dVertex
 10
92.64776974980724
 20
11.6633770214857
 30
0.0
  0
VERTEX
  5
1718
330
16F7
100
AcDbEntity
  8
0
 62
     7
370
     0
100
AcDbVertex
100
AcDb2dVertex
 10
92.70650862784545
 20
11.70437365777042
 30
0.0
  0
VERTEX
  5
1719
330
16F7
100
AcDbEntity
  8
0
 62
     7
370
     0
100
AcDbVertex
100
AcDb2dVertex
 10
92.75852956968574
 20
11.74881538954125
 30
0.0
  0
VERTEX
  5
171A
330
16F7
100
AcDbEntity
  8
0
 62
     7
370
     0
100
AcDbVertex
100
AcDb2dVertex
 10
92.8041770848767
 20
11.79429064995793
 30
0.0
  0
VERTEX
  5
171B
330
16F7
100
AcDbEntity
  8
0
 62
     7
370
     0
100
AcDbVertex
100
AcDb2dVertex
 10
92.84069509702948
 20
11.84286649631208
 30
0.0
  0
VERTEX
  5
171C
330
16F7
100
AcDbEntity
  8
0
 62
     7
370
     0
100
AcDbVertex
100
AcDb2dVertex
 10
92.87066742775865
 20
11.89385390950653
 30
0.0
  0
VERTEX
  5
171D
330
16F7
100
AcDbEntity
  8
0
 62
     7
370
     0
100
AcDbVertex
100
AcDb2dVertex
 10
92.89168251022394
 20
11.94621936089541
 30
0.0
  0
VERTEX
  5
171E
330
16F7
100
AcDbEntity
  8
0
 62
     7
370
     0
100
AcDbVertex
100
AcDb2dVertex
 10
92.90391259919962
 20
11.99824030273569
 30
0.0
  0
VERTEX
  5
171F
330
16F7
100
AcDbEntity
  8
0
 62
     7
370
     0
100
AcDbVertex
100
AcDb2dVertex
 10
92.90821896855726
 20
12.05163928277042
 30
0.0
  0
VERTEX
  5
1720
330
16F7
100
AcDbEntity
  8
0
 62
     7
370
     0
100
AcDbVertex
100
AcDb2dVertex
 10
92.90391259919962
 20
12.10469375325653
 30
0.0
  0
VERTEX
  5
1721
330
16F7
100
AcDbEntity
  8
0
 62
     7
370
     0
100
AcDbVertex
100
AcDb2dVertex
 10
92.89168251022394
 20
12.15774822374264
 30
0.0
  0
VERTEX
  5
1722
330
16F7
100
AcDbEntity
  8
0
 62
     7
370
     0
100
AcDbVertex
100
AcDb2dVertex
 10
92.86946164433851
 20
12.20873563693709
 30
0.0
  0
VERTEX
  5
1723
330
16F7
100
AcDbEntity
  8
0
 62
     7
370
     0
100
AcDbVertex
100
AcDb2dVertex
 10
92.83966156838365
 20
12.25868952148571
 30
0.0
  0
VERTEX
  5
1724
330
16F7
100
AcDbEntity
  8
0
 62
     7
370
     0
100
AcDbVertex
100
AcDb2dVertex
 10
92.80297130145656
 20
12.3086434060343
 30
0.0
  0
VERTEX
  5
1725
330
16F7
100
AcDbEntity
  8
0
 62
     7
370
     0
100
AcDbVertex
100
AcDb2dVertex
 10
92.75646251239406
 20
12.35411866645097
 30
0.0
  0
VERTEX
  5
1726
330
16F7
100
AcDbEntity
  8
0
 62
     7
370
     0
100
AcDbVertex
100
AcDb2dVertex
 10
92.70426931577949
 20
12.39752686957598
 30
0.0
  0
SEQEND
  5
1727
330
16F7
100
AcDbEntity
  8
0
 62
     7
370
     0
  0
POLYLINE
  5
1728
330
156B
100
AcDbEntity
  8
0
 62
     7
370
     0
100
AcDb2dPolyline
 66
     1
 10
0.0
 20
0.0
 30
0.0
  0
VERTEX
  5
1729
330
1728
100
AcDbEntity
  8
0
 62
     7
370
     0
100
AcDbVertex
100
AcDb2dVertex
 10
91.12676009268922
 20
12.03716988172874
 30
0.0
  0
VERTEX
  5
172A
330
1728
100
AcDbEntity
  8
0
 62
     7
370
     0
100
AcDbVertex
100
AcDb2dVertex
 10
91.12899940475518
 20
11.98928305447179
 30
0.0
  0
VERTEX
  5
172B
330
1728
100
AcDbEntity
  8
0
 62
     7
370
     0
100
AcDbVertex
100
AcDb2dVertex
 10
91.1389901816649
 20
11.9427742654093
 30
0.0
  0
VERTEX
  5
172C
330
1728
100
AcDbEntity
  8
0
 62
     7
370
     0
100
AcDbVertex
100
AcDb2dVertex
 10
91.15776595206421
 20
11.89867704318709
 30
0.0
  0
VERTEX
  5
172D
330
1728
100
AcDbEntity
  8
0
 62
     7
370
     0
100
AcDbVertex
100
AcDb2dVertex
 10
91.18325965866143
 20
11.85423531141626
 30
0.0
  0
VERTEX
  5
172E
330
1728
100
AcDbEntity
  8
0
 62
     7
370
     0
100
AcDbVertex
100
AcDb2dVertex
 10
91.21874414216838
 20
11.81323867513153
 30
0.0
  0
VERTEX
  5
172F
330
1728
100
AcDbEntity
  8
0
 62
     7
370
     0
100
AcDbVertex
100
AcDb2dVertex
 10
91.2597407784531
 20
11.77327556749264
 30
0.0
  0
VERTEX
  5
1730
330
1728
100
AcDbEntity
  8
0
 62
     7
370
     0
100
AcDbVertex
100
AcDb2dVertex
 10
91.30866113435587
 20
11.7377910839857
 30
0.0
  0
VERTEX
  5
1731
330
1728
100
AcDbEntity
  8
0
 62
     7
370
     0
100
AcDbVertex
100
AcDb2dVertex
 10
91.36395491690796
 20
11.70437365777042
 30
0.0
  0
VERTEX
  5
1732
330
1728
100
AcDbEntity
  8
0
 62
     7
370
     0
100
AcDbVertex
100
AcDb2dVertex
 10
91.42493310701212
 20
11.67543485568709
 30
0.0
  0
VERTEX
  5
1733
330
1728
100
AcDbEntity
  8
0
 62
     7
370
     0
100
AcDbVertex
100
AcDb2dVertex
 10
91.49142344989405
 20
11.64994114908987
 30
0.0
  0
VERTEX
  5
1734
330
1728
100
AcDbEntity
  8
0
 62
     7
370
     0
100
AcDbVertex
100
AcDb2dVertex
 10
91.56256467168224
 20
11.6292705761732
 30
0.0
  0
VERTEX
  5
1735
330
1728
100
AcDbEntity
  8
0
 62
     7
370
     0
100
AcDbVertex
100
AcDb2dVertex
 10
91.63663422463365
 20
11.61376764648569
 30
0.0
  0
VERTEX
  5
1736
330
1728
100
AcDbEntity
  8
0
 62
     7
370
     0
100
AcDbVertex
100
AcDb2dVertex
 10
91.71535465649128
 20
11.60239883138152
 30
0.0
  0
VERTEX
  5
1737
330
1728
100
AcDbEntity
  8
0
 62
     7
370
     0
100
AcDbVertex
100
AcDb2dVertex
 10
91.79424734312323
 20
11.59481962131208
 30
0.0
  0
VERTEX
  5
1738
330
1728
100
AcDbEntity
  8
0
 62
     7
370
     0
100
AcDbVertex
100
AcDb2dVertex
 10
91.87503483227253
 20
11.59344158311765
 30
0.0
  0
VERTEX
  5
1739
330
1728
100
AcDbEntity
  8
0
 62
     7
370
     0
100
AcDbVertex
100
AcDb2dVertex
 10
91.95702810484197
 20
11.59585314995791
 30
0.0
  0
VERTEX
  5
173A
330
1728
100
AcDbEntity
  8
0
 62
     7
370
     0
100
AcDbVertex
100
AcDb2dVertex
 10
92.03798784876559
 20
11.60377686957597
 30
0.0
  0
VERTEX
  5
173B
330
1728
100
AcDbEntity
  8
0
 62
     7
370
     0
100
AcDbVertex
100
AcDb2dVertex
 10
92.11791406404337
 20
11.6168682324232
 30
0.0
  0
VERTEX
  5
173C
330
1728
100
AcDbEntity
  8
0
 62
     7
370
     0
100
AcDbVertex
100
AcDb2dVertex
 10
92.19542871248087
 20
11.6323711621107
 30
0.0
  0
VERTEX
  5
173D
330
1728
100
AcDbEntity
  8
0
 62
     7
370
     0
100
AcDbVertex
100
AcDb2dVertex
 10
92.27087630362671
 20
11.65476428277043
 30
0.0
  0
VERTEX
  5
173E
330
1728
100
AcDbEntity
  8
0
 62
     7
370
     0
100
AcDbVertex
100
AcDb2dVertex
 10
92.34063948722045
 20
11.68129151801347
 30
0.0
  0
VERTEX
  5
173F
330
1728
100
AcDbEntity
  8
0
 62
     7
370
     0
100
AcDbVertex
100
AcDb2dVertex
 10
92.4071298301024
 20
11.7098858105482
 30
0.0
  0
VERTEX
  5
1740
330
1728
100
AcDbEntity
  8
0
 62
     7
370
     0
100
AcDbVertex
100
AcDb2dVertex
 10
92.46810802020656
 20
11.74330323676346
 30
0.0
  0
VERTEX
  5
1741
330
1728
100
AcDbEntity
  8
0
 62
     7
370
     0
100
AcDbVertex
100
AcDb2dVertex
 10
92.52357405753295
 20
11.77982124891625
 30
0.0
  0
VERTEX
  5
1742
330
1728
100
AcDbEntity
  8
0
 62
     7
370
     0
100
AcDbVertex
100
AcDb2dVertex
 10
92.57232215866142
 20
11.81978435655514
 30
0.0
  0
VERTEX
  5
1743
330
1728
100
AcDbEntity
  8
0
 62
     7
370
     0
100
AcDbVertex
100
AcDb2dVertex
 10
92.61452457836629
 20
11.8618145214857
 30
0.0
  0
VERTEX
  5
1744
330
1728
100
AcDbEntity
  8
0
 62
     7
370
     0
100
AcDbVertex
100
AcDb2dVertex
 10
92.64776974980724
 20
11.90625625325653
 30
0.0
  0
VERTEX
  5
1745
330
1728
100
AcDbEntity
  8
0
 62
     7
370
     0
100
AcDbVertex
100
AcDb2dVertex
 10
92.67550276847044
 20
11.95173151367319
 30
0.0
  0
VERTEX
  5
1746
330
1728
100
AcDbEntity
  8
0
 62
     7
370
     0
100
AcDbVertex
100
AcDb2dVertex
 10
92.69203922680379
 20
11.99720677408986
 30
0.0
  0
VERTEX
  5
1747
330
1728
100
AcDbEntity
  8
0
 62
     7
370
     0
100
AcDbVertex
100
AcDb2dVertex
 10
92.70323578713364
 20
12.04474909179819
 30
0.0
  0
VERTEX
  5
1748
330
1728
100
AcDbEntity
  8
0
 62
     7
370
     0
100
AcDbVertex
100
AcDb2dVertex
 10
92.70426931577949
 20
12.09263591905514
 30
0.0
  0
SEQEND
  5
1749
330
1728
100
AcDbEntity
  8
0
 62
     7
370
     0
  0
POLYLINE
  5
174A
330
156B
100
AcDbEntity
  8
0
 62
     7
370
     0
100
AcDb2dPolyline
 66
     1
 10
0.0
 20
0.0
 30
0.0
  0
VERTEX
  5
174B
330
174A
100
AcDbEntity
  8
0
 62
     7
370
     0
100
AcDbVertex
100
AcDb2dVertex
 10
91.9205100926892
 20
16.68667074978429
 30
0.0
  0
VERTEX
  5
174C
330
174A
100
AcDbEntity
  8
0
 62
     7
370
     0
100
AcDbVertex
100
AcDb2dVertex
 10
91.91723725197739
 20
16.68873780707597
 30
0.0
  0
VERTEX
  5
174D
330
174A
100
AcDbEntity
  8
0
 62
     7
370
     0
100
AcDbVertex
100
AcDb2dVertex
 10
91.91275862784545
 20
16.68667074978429
 30
0.0
  0
VERTEX
  5
174E
330
174A
100
AcDbEntity
  8
0
 62
     7
370
     0
100
AcDbVertex
100
AcDb2dVertex
 10
91.54361664650865
 20
16.01797771593014
 30
0.0
  0
SEQEND
  5
174F
330
174A
100
AcDbEntity
  8
0
 62
     7
370
     0
  0
LINE
  5
1750
330
156B
100
AcDbEntity
  8
0
 62
     7
370
     0
100
AcDbLine
 10
91.92154362133504
 20
16.68667074978429
 30
0.0
 11
92.27862776847045
 21
16.16646133138153
 31
0.0
  0
LINE
  5
1751
330
156B
100
AcDbEntity
  8
0
 62
     7
370
     0
100
AcDbLine
 10
92.69100569815796
 20
14.1534920388468
 30
0.0
 11
92.69100569815796
 21
14.48697728190237
 31
0.0
  0
LINE
  5
1752
330
156B
100
AcDbEntity
  8
0
 62
     7
370
     0
100
AcDbLine
 10
92.69100569815796
 20
14.8228740917982
 30
0.0
 11
92.69100569815796
 21
15.2076912575968
 31
0.0
  0
LINE
  5
1753
330
156B
100
AcDbEntity
  8
0
 62
     7
370
     0
100
AcDbLine
 10
91.47936561569267
 20
15.87293919596486
 30
0.0
 11
91.23097423114407
 21
15.4061287575968
 31
0.0
  0
LINE
  5
1754
330
156B
100
AcDbEntity
  8
0
 62
     7
370
     0
100
AcDbLine
 10
91.14002371031073
 20
14.60238798068708
 30
0.0
 11
91.14002371031073
 21
14.94930909613848
 31
0.0
  0
LINE
  5
1755
330
156B
100
AcDbEntity
  8
0
 62
     7
370
     0
100
AcDbLine
 10
92.69100569815796
 20
13.4837654763468
 30
0.0
 11
92.69100569815796
 21
13.82414091037458
 31
0.0
  0
LINE
  5
1756
330
156B
100
AcDbEntity
  8
0
 62
     7
370
     0
100
AcDbLine
 10
91.14002371031073
 20
13.26086779839542
 30
0.0
 11
91.14002371031073
 21
13.5547344433607
 31
0.0
  0
LINE
  5
1757
330
156B
100
AcDbEntity
  8
0
 62
     7
370
     0
100
AcDbLine
 10
91.14002371031073
 20
13.93059436089541
 30
0.0
 11
91.14002371031073
 21
14.21653728624264
 31
0.0
  0
LINE
  5
1758
330
156B
100
AcDbEntity
  8
0
 62
     7
370
     0
100
AcDbLine
 10
92.35286957619615
 20
15.9948955761732
 30
0.0
 11
92.59127018383503
 21
15.61214546766625
 31
0.0
  0
POLYLINE
  5
1759
330
156B
100
AcDbEntity
  8
0
 62
     7
370
     0
100
AcDb2dPolyline
 66
     1
 10
0.0
 20
0.0
 30
0.0
  0
VERTEX
  5
175A
330
1759
100
AcDbEntity
  8
0
 62
     7
370
     0
100
AcDbVertex
100
AcDb2dVertex
 10
91.54361664650865
 20
16.01797771593014
 30
0.0
  0
VERTEX
  5
175B
330
1759
100
AcDbEntity
  8
0
 62
     7
370
     0
100
AcDbVertex
100
AcDb2dVertex
 10
91.53707096508503
 20
15.98938342339542
 30
0.0
  0
VERTEX
  5
175C
330
1759
100
AcDbEntity
  8
0
 62
     7
370
     0
100
AcDbVertex
100
AcDb2dVertex
 10
91.53913802237671
 20
15.96147814995791
 30
0.0
  0
VERTEX
  5
175D
330
1759
100
AcDbEntity
  8
0
 62
     7
370
     0
100
AcDbVertex
100
AcDb2dVertex
 10
91.55033458270656
 20
15.93598444336069
 30
0.0
  0
VERTEX
  5
175E
330
1759
100
AcDbEntity
  8
0
 62
     7
370
     0
100
AcDbVertex
100
AcDb2dVertex
 10
91.56790456968574
 20
15.91290230360374
 30
0.0
  0
VERTEX
  5
175F
330
1759
100
AcDbEntity
  8
0
 62
     7
370
     0
100
AcDbVertex
100
AcDb2dVertex
 10
91.59236474763712
 20
15.89292074978431
 30
0.0
  0
VERTEX
  5
1760
330
1759
100
AcDbEntity
  8
0
 62
     7
370
     0
100
AcDbVertex
100
AcDb2dVertex
 10
91.62440413565795
 20
15.87500625325653
 30
0.0
  0
VERTEX
  5
1761
330
1759
100
AcDbEntity
  8
0
 62
     7
370
     0
100
AcDbVertex
100
AcDb2dVertex
 10
91.66212793123087
 20
15.86191489040931
 30
0.0
  0
VERTEX
  5
1762
330
1759
100
AcDbEntity
  8
0
 62
     7
370
     0
100
AcDbVertex
100
AcDb2dVertex
 10
91.70656966300169
 20
15.85295764214541
 30
0.0
  0
VERTEX
  5
1763
330
1759
100
AcDbEntity
  8
0
 62
     7
370
     0
100
AcDbVertex
100
AcDb2dVertex
 10
91.75411198071003
 20
15.84744548936764
 30
0.0
  0
VERTEX
  5
1764
330
1759
100
AcDbEntity
  8
0
 62
     7
370
     0
100
AcDbVertex
100
AcDb2dVertex
 10
91.80527164867879
 20
15.84606745117319
 30
0.0
  0
VERTEX
  5
1765
330
1759
100
AcDbEntity
  8
0
 62
     7
370
     0
100
AcDbVertex
100
AcDb2dVertex
 10
91.8584983739392
 20
15.8495125466593
 30
0.0
  0
VERTEX
  5
1766
330
1759
100
AcDbEntity
  8
0
 62
     7
370
     0
100
AcDbVertex
100
AcDb2dVertex
 10
91.91379215649128
 20
15.85605822808293
 30
0.0
  0
VERTEX
  5
1767
330
1759
100
AcDbEntity
  8
0
 62
     7
370
     0
100
AcDbVertex
100
AcDb2dVertex
 10
91.96925819381768
 20
15.86742704318709
 30
0.0
  0
VERTEX
  5
1768
330
1759
100
AcDbEntity
  8
0
 62
     7
370
     0
100
AcDbVertex
100
AcDb2dVertex
 10
92.02248491907809
 20
15.88292997287459
 30
0.0
  0
VERTEX
  5
1769
330
1759
100
AcDbEntity
  8
0
 62
     7
370
     0
100
AcDbVertex
100
AcDb2dVertex
 10
92.07347233227253
 20
15.90187799804821
 30
0.0
  0
VERTEX
  5
176A
330
1759
100
AcDbEntity
  8
0
 62
     7
370
     0
100
AcDbVertex
100
AcDb2dVertex
 10
92.12342621682115
 20
15.92392660915931
 30
0.0
  0
VERTEX
  5
176B
330
1759
100
AcDbEntity
  8
0
 62
     7
370
     0
100
AcDbVertex
100
AcDb2dVertex
 10
92.16666216517184
 20
15.94804227756208
 30
0.0
  0
VERTEX
  5
176C
330
1759
100
AcDbEntity
  8
0
 62
     7
370
     0
100
AcDbVertex
100
AcDb2dVertex
 10
92.20421370597046
 20
15.97491402235374
 30
0.0
  0
VERTEX
  5
176D
330
1759
100
AcDbEntity
  8
0
 62
     7
370
     0
100
AcDbVertex
100
AcDb2dVertex
 10
92.23763113218572
 20
16.00247478624264
 30
0.0
  0
VERTEX
  5
176E
330
1759
100
AcDbEntity
  8
0
 62
     7
370
     0
100
AcDbVertex
100
AcDb2dVertex
 10
92.26312483878295
 20
16.03244711697181
 30
0.0
  0
VERTEX
  5
176F
330
1759
100
AcDbEntity
  8
0
 62
     7
370
     0
100
AcDbVertex
100
AcDb2dVertex
 10
92.28069482576213
 20
16.06241944770097
 30
0.0
  0
VERTEX
  5
1770
330
1759
100
AcDbEntity
  8
0
 62
     7
370
     0
100
AcDbVertex
100
AcDb2dVertex
 10
92.29189138609198
 20
16.08998021158986
 30
0.0
  0
VERTEX
  5
1771
330
1759
100
AcDbEntity
  8
0
 62
     7
370
     0
100
AcDbVertex
100
AcDb2dVertex
 10
92.29413069815796
 20
16.11891901367321
 30
0.0
  0
VERTEX
  5
1772
330
1759
100
AcDbEntity
  8
0
 62
     7
370
     0
100
AcDbVertex
100
AcDb2dVertex
 10
92.28861854538017
 20
16.14544624891624
 30
0.0
  0
VERTEX
  5
1773
330
1759
100
AcDbEntity
  8
0
 62
     7
370
     0
100
AcDbVertex
100
AcDb2dVertex
 10
92.27535492775865
 20
16.17128446506209
 30
0.0
  0
SEQEND
  5
1774
330
1759
100
AcDbEntity
  8
0
 62
     7
370
     0
  0
POLYLINE
  5
1775
330
156B
100
AcDbEntity
  8
0
 62
     7
370
     0
100
AcDb2dPolyline
 66
     1
 10
0.0
 20
0.0
 30
0.0
  0
VERTEX
  5
1776
330
1775
100
AcDbEntity
  8
0
 62
     7
370
     0
100
AcDbVertex
100
AcDb2dVertex
 10
91.14002371031073
 20
14.9193367654093
 30
0.0
  0
VERTEX
  5
1777
330
1775
100
AcDbEntity
  8
0
 62
     7
370
     0
100
AcDbVertex
100
AcDb2dVertex
 10
91.09024208053643
 20
14.86628229492319
 30
0.0
  0
VERTEX
  5
1778
330
1775
100
AcDbEntity
  8
0
 62
     7
370
     0
100
AcDbVertex
100
AcDb2dVertex
 10
91.0458003487656
 20
14.81184978624265
 30
0.0
  0
VERTEX
  5
1779
330
1775
100
AcDbEntity
  8
0
 62
     7
370
     0
100
AcDbVertex
100
AcDb2dVertex
 10
91.01031586525865
 20
14.75535022027043
 30
0.0
  0
VERTEX
  5
177A
330
1775
100
AcDbEntity
  8
0
 62
     7
370
     0
100
AcDbVertex
100
AcDb2dVertex
 10
90.98275510136977
 20
14.6988506542982
 30
0.0
  0
VERTEX
  5
177B
330
1775
100
AcDbEntity
  8
0
 62
     7
370
     0
100
AcDbVertex
100
AcDb2dVertex
 10
90.96156776413018
 20
14.64338461697181
 30
0.0
  0
VERTEX
  5
177C
330
1775
100
AcDbEntity
  8
0
 62
     7
370
     0
100
AcDbVertex
100
AcDb2dVertex
 10
90.95054345857462
 20
14.58791857964541
 30
0.0
  0
VERTEX
  5
177D
330
1775
100
AcDbEntity
  8
0
 62
     7
370
     0
100
AcDbVertex
100
AcDb2dVertex
 10
90.94727061786281
 20
14.53245254231902
 30
0.0
  0
VERTEX
  5
177E
330
1775
100
AcDbEntity
  8
0
 62
     7
370
     0
100
AcDbVertex
100
AcDb2dVertex
 10
90.95157698722045
 20
14.47939807183292
 30
0.0
  0
VERTEX
  5
177F
330
1775
100
AcDbEntity
  8
0
 62
     7
370
     0
100
AcDbVertex
100
AcDb2dVertex
 10
90.96277354755031
 20
14.42841065863848
 30
0.0
  0
VERTEX
  5
1780
330
1775
100
AcDbEntity
  8
0
 62
     7
370
     0
100
AcDbVertex
100
AcDb2dVertex
 10
90.9837886300156
 20
14.37949030273569
 30
0.0
  0
VERTEX
  5
1781
330
1775
100
AcDbEntity
  8
0
 62
     7
370
     0
100
AcDbVertex
100
AcDb2dVertex
 10
91.01255517732463
 20
14.33194798502737
 30
0.0
  0
VERTEX
  5
1782
330
1775
100
AcDbEntity
  8
0
 62
     7
370
     0
100
AcDbVertex
100
AcDb2dVertex
 10
91.04924544425172
 20
14.2895733105482
 30
0.0
  0
VERTEX
  5
1783
330
1775
100
AcDbEntity
  8
0
 62
     7
370
     0
100
AcDbVertex
100
AcDb2dVertex
 10
91.09248139260239
 20
14.25098824110375
 30
0.0
  0
VERTEX
  5
1784
330
1775
100
AcDbEntity
  8
0
 62
     7
370
     0
100
AcDbVertex
100
AcDb2dVertex
 10
91.14346880579685
 20
14.21447022895097
 30
0.0
  0
VERTEX
  5
1785
330
1775
100
AcDbEntity
  8
0
 62
     7
370
     0
100
AcDbVertex
100
AcDb2dVertex
 10
91.20100190041489
 20
14.18346436957597
 30
0.0
  0
VERTEX
  5
1786
330
1775
100
AcDbEntity
  8
0
 62
     7
370
     0
100
AcDbVertex
100
AcDb2dVertex
 10
91.26421940258504
 20
14.15555909613847
 30
0.0
  0
VERTEX
  5
1787
330
1775
100
AcDbEntity
  8
0
 62
     7
370
     0
100
AcDbVertex
100
AcDb2dVertex
 10
91.33294905753295
 20
14.13351048502736
 30
0.0
  0
VERTEX
  5
1788
330
1775
100
AcDbEntity
  8
0
 62
     7
370
     0
100
AcDbVertex
100
AcDb2dVertex
 10
91.40719086525866
 20
14.11662951714541
 30
0.0
  0
VERTEX
  5
1789
330
1775
100
AcDbEntity
  8
0
 62
     7
370
     0
100
AcDbVertex
100
AcDb2dVertex
 10
91.48487776847046
 20
14.10353815429821
 30
0.0
  0
VERTEX
  5
178A
330
1775
100
AcDbEntity
  8
0
 62
     7
370
     0
100
AcDbVertex
100
AcDb2dVertex
 10
91.56687104103991
 20
14.09561443468014
 30
0.0
  0
VERTEX
  5
178B
330
1775
100
AcDbEntity
  8
0
 62
     7
370
     0
100
AcDbVertex
100
AcDb2dVertex
 10
91.65110362567531
 20
14.09354737738847
 30
0.0
  0
VERTEX
  5
178C
330
1775
100
AcDbEntity
  8
0
 62
     7
370
     0
100
AcDbVertex
100
AcDb2dVertex
 10
91.73860905102253
 20
14.09699247287459
 30
0.0
  0
VERTEX
  5
178D
330
1775
100
AcDbEntity
  8
0
 62
     7
370
     0
100
AcDbVertex
100
AcDb2dVertex
 10
91.82732025978991
 20
14.10457168294402
 30
0.0
  0
VERTEX
  5
178E
330
1775
100
AcDbEntity
  8
0
 62
     7
370
     0
100
AcDbVertex
100
AcDb2dVertex
 10
91.91723725197739
 20
14.11800755533986
 30
0.0
  0
VERTEX
  5
178F
330
1775
100
AcDbEntity
  8
0
 62
     7
370
     0
100
AcDbVertex
100
AcDb2dVertex
 10
92.00594846074476
 20
14.13557754231902
 30
0.0
  0
VERTEX
  5
1790
330
1775
100
AcDbEntity
  8
0
 62
     7
370
     0
100
AcDbVertex
100
AcDb2dVertex
 10
92.09465966951212
 20
14.15900419162459
 30
0.0
  0
VERTEX
  5
1791
330
1775
100
AcDbEntity
  8
0
 62
     7
370
     0
100
AcDbVertex
100
AcDb2dVertex
 10
92.18216509485934
 20
14.18656495551347
 30
0.0
  0
VERTEX
  5
1792
330
1775
100
AcDbEntity
  8
0
 62
     7
370
     0
100
AcDbVertex
100
AcDb2dVertex
 10
92.26639767949476
 20
14.21757081488847
 30
0.0
  0
VERTEX
  5
1793
330
1775
100
AcDbEntity
  8
0
 62
     7
370
     0
100
AcDbVertex
100
AcDb2dVertex
 10
92.34735742341838
 20
14.25443333658987
 30
0.0
  0
VERTEX
  5
1794
330
1775
100
AcDbEntity
  8
0
 62
     7
370
     0
100
AcDbVertex
100
AcDb2dVertex
 10
92.42607785527601
 20
14.29405193468014
 30
0.0
  0
VERTEX
  5
1795
330
1775
100
AcDbEntity
  8
0
 62
     7
370
     0
100
AcDbVertex
100
AcDb2dVertex
 10
92.5003196630017
 20
14.33746013780513
 30
0.0
  0
VERTEX
  5
1796
330
1775
100
AcDbEntity
  8
0
 62
     7
370
     0
100
AcDbVertex
100
AcDb2dVertex
 10
92.56904931794961
 20
14.38396892686764
 30
0.0
  0
VERTEX
  5
1797
330
1775
100
AcDbEntity
  8
0
 62
     7
370
     0
100
AcDbVertex
100
AcDb2dVertex
 10
92.63226682011975
 20
14.43392281141625
 30
0.0
  0
VERTEX
  5
1798
330
1775
100
AcDbEntity
  8
0
 62
     7
370
     0
100
AcDbVertex
100
AcDb2dVertex
 10
92.68876638609198
 20
14.4849102246107
 30
0.0
  0
VERTEX
  5
1799
330
1775
100
AcDbEntity
  8
0
 62
     7
370
     0
100
AcDbVertex
100
AcDb2dVertex
 10
92.73975379928643
 20
14.5379646950968
 30
0.0
  0
VERTEX
  5
179A
330
1775
100
AcDbEntity
  8
0
 62
     7
370
     0
100
AcDbVertex
100
AcDb2dVertex
 10
92.78298974763712
 20
14.5934307324232
 30
0.0
  0
VERTEX
  5
179B
330
1775
100
AcDbEntity
  8
0
 62
     7
370
     0
100
AcDbVertex
100
AcDb2dVertex
 10
92.82071354321002
 20
14.64889676974958
 30
0.0
  0
VERTEX
  5
179C
330
1775
100
AcDbEntity
  8
0
 62
     7
370
     0
100
AcDbVertex
100
AcDb2dVertex
 10
92.84844656187322
 20
14.70436280707597
 30
0.0
  0
VERTEX
  5
179D
330
1775
100
AcDbEntity
  8
0
 62
     7
370
     0
100
AcDbVertex
100
AcDb2dVertex
 10
92.86946164433851
 20
14.76086237304819
 30
0.0
  0
VERTEX
  5
179E
330
1775
100
AcDbEntity
  8
0
 62
     7
370
     0
100
AcDbVertex
100
AcDb2dVertex
 10
92.8816917333142
 20
14.81632841037458
 30
0.0
  0
VERTEX
  5
179F
330
1775
100
AcDbEntity
  8
0
 62
     7
370
     0
100
AcDbVertex
100
AcDb2dVertex
 10
92.88617035744614
 20
14.87179444770098
 30
0.0
  0
VERTEX
  5
17A0
330
1775
100
AcDbEntity
  8
0
 62
     7
370
     0
100
AcDbVertex
100
AcDb2dVertex
 10
92.88272526196003
 20
14.92484891818708
 30
0.0
  0
VERTEX
  5
17A1
330
1775
100
AcDbEntity
  8
0
 62
     7
370
     0
100
AcDbVertex
100
AcDb2dVertex
 10
92.86946164433851
 20
14.97583633138153
 30
0.0
  0
VERTEX
  5
17A2
330
1775
100
AcDbEntity
  8
0
 62
     7
370
     0
100
AcDbVertex
100
AcDb2dVertex
 10
92.84965234529337
 20
15.02475668728431
 30
0.0
  0
VERTEX
  5
17A3
330
1775
100
AcDbEntity
  8
0
 62
     7
370
     0
100
AcDbVertex
100
AcDb2dVertex
 10
92.82174707185587
 20
15.07229900499264
 30
0.0
  0
VERTEX
  5
17A4
330
1775
100
AcDbEntity
  8
0
 62
     7
370
     0
100
AcDbVertex
100
AcDb2dVertex
 10
92.7852290597031
 20
15.11467367947181
 30
0.0
  0
VERTEX
  5
17A5
330
1775
100
AcDbEntity
  8
0
 62
     7
370
     0
100
AcDbVertex
100
AcDb2dVertex
 10
92.74302663999824
 20
15.15567031575654
 30
0.0
  0
VERTEX
  5
17A6
330
1775
100
AcDbEntity
  8
0
 62
     7
370
     0
100
AcDbVertex
100
AcDb2dVertex
 10
92.69100569815796
 20
15.19115479926347
 30
0.0
  0
SEQEND
  5
17A7
330
1775
100
AcDbEntity
  8
0
 62
     7
370
     0
  0
POLYLINE
  5
17A8
330
156B
100
AcDbEntity
  8
0
 62
     7
370
     0
100
AcDb2dPolyline
 66
     1
 10
0.0
 20
0.0
 30
0.0
  0
VERTEX
  5
17A9
330
17A8
100
AcDbEntity
  8
0
 62
     7
370
     0
100
AcDbVertex
100
AcDb2dVertex
 10
91.23097423114407
 20
15.4061287575968
 30
0.0
  0
VERTEX
  5
17AA
330
17A8
100
AcDbEntity
  8
0
 62
     7
370
     0
100
AcDbVertex
100
AcDb2dVertex
 10
91.21874414216838
 20
15.35514134440237
 30
0.0
  0
VERTEX
  5
17AB
330
17A8
100
AcDbEntity
  8
0
 62
     7
370
     0
100
AcDbVertex
100
AcDb2dVertex
 10
91.21443777281072
 20
15.30174236436764
 30
0.0
  0
VERTEX
  5
17AC
330
17A8
100
AcDbEntity
  8
0
 62
     7
370
     0
100
AcDbVertex
100
AcDb2dVertex
 10
91.21874414216838
 20
15.25213298936764
 30
0.0
  0
VERTEX
  5
17AD
330
17A8
100
AcDbEntity
  8
0
 62
     7
370
     0
100
AcDbVertex
100
AcDb2dVertex
 10
91.23097423114407
 20
15.2045906716593
 30
0.0
  0
VERTEX
  5
17AE
330
17A8
100
AcDbEntity
  8
0
 62
     7
370
     0
100
AcDbVertex
100
AcDb2dVertex
 10
91.25198931360934
 20
15.15773737304821
 30
0.0
  0
VERTEX
  5
17AF
330
17A8
100
AcDbEntity
  8
0
 62
     7
370
     0
100
AcDbVertex
100
AcDb2dVertex
 10
91.2819616443385
 20
15.11467367947181
 30
0.0
  0
VERTEX
  5
17B0
330
17A8
100
AcDbEntity
  8
0
 62
     7
370
     0
100
AcDbVertex
100
AcDb2dVertex
 10
91.31744612784546
 20
15.07471057183292
 30
0.0
  0
VERTEX
  5
17B1
330
17A8
100
AcDbEntity
  8
0
 62
     7
370
     0
100
AcDbVertex
100
AcDb2dVertex
 10
91.36292138826211
 20
15.03819255968014
 30
0.0
  0
VERTEX
  5
17B2
330
17A8
100
AcDbEntity
  8
0
 62
     7
370
     0
100
AcDbVertex
100
AcDb2dVertex
 10
91.41287527281074
 20
15.00684219075653
 30
0.0
  0
VERTEX
  5
17B3
330
17A8
100
AcDbEntity
  8
0
 62
     7
370
     0
100
AcDbVertex
100
AcDb2dVertex
 10
91.47040836742879
 20
14.97928142686764
 30
0.0
  0
VERTEX
  5
17B4
330
17A8
100
AcDbEntity
  8
0
 62
     7
370
     0
100
AcDbVertex
100
AcDb2dVertex
 10
91.53242008617878
 20
14.95723281575652
 30
0.0
  0
VERTEX
  5
17B5
330
17A8
100
AcDbEntity
  8
0
 62
     7
370
     0
100
AcDbVertex
100
AcDb2dVertex
 10
91.59891042906073
 20
14.94172988606903
 30
0.0
  0
VERTEX
  5
17B6
330
17A8
100
AcDbEntity
  8
0
 62
     7
370
     0
100
AcDbVertex
100
AcDb2dVertex
 10
91.67005165084892
 20
14.93036107096486
 30
0.0
  0
VERTEX
  5
17B7
330
17A8
100
AcDbEntity
  8
0
 62
     7
370
     0
100
AcDbVertex
100
AcDb2dVertex
 10
91.74429345857461
 20
14.92484891818708
 30
0.0
  0
VERTEX
  5
17B8
330
17A8
100
AcDbEntity
  8
0
 62
     7
370
     0
100
AcDbVertex
100
AcDb2dVertex
 10
91.81974104972045
 20
14.92484891818708
 30
0.0
  0
VERTEX
  5
17B9
330
17A8
100
AcDbEntity
  8
0
 62
     7
370
     0
100
AcDbVertex
100
AcDb2dVertex
 10
91.89725569815795
 20
14.93173910915931
 30
0.0
  0
VERTEX
  5
17BA
330
17A8
100
AcDbEntity
  8
0
 62
     7
370
     0
100
AcDbVertex
100
AcDb2dVertex
 10
91.97494260136975
 20
14.94379694336069
 30
0.0
  0
VERTEX
  5
17BB
330
17A8
100
AcDbEntity
  8
0
 62
     7
370
     0
100
AcDbVertex
100
AcDb2dVertex
 10
92.05142372116142
 20
14.95929987304819
 30
0.0
  0
VERTEX
  5
17BC
330
17A8
100
AcDbEntity
  8
0
 62
     7
370
     0
100
AcDbVertex
100
AcDb2dVertex
 10
92.12566552888713
 20
14.98272652235374
 30
0.0
  0
VERTEX
  5
17BD
330
17A8
100
AcDbEntity
  8
0
 62
     7
370
     0
100
AcDbVertex
100
AcDb2dVertex
 10
92.19887380796697
 20
15.01028728624264
 30
0.0
  0
VERTEX
  5
17BE
330
17A8
100
AcDbEntity
  8
0
 62
     7
370
     0
100
AcDbVertex
100
AcDb2dVertex
 10
92.2674312081406
 20
15.04267118381209
 30
0.0
  0
VERTEX
  5
17BF
330
17A8
100
AcDbEntity
  8
0
 62
     7
370
     0
100
AcDbVertex
100
AcDb2dVertex
 10
92.33185449373086
 20
15.07918919596486
 30
0.0
  0
VERTEX
  5
17C0
330
17A8
100
AcDbEntity
  8
0
 62
     7
370
     0
100
AcDbVertex
100
AcDb2dVertex
 10
92.3916269004149
 20
15.11915230360375
 30
0.0
  0
VERTEX
  5
17C1
330
17A8
100
AcDbEntity
  8
0
 62
     7
370
     0
100
AcDbVertex
100
AcDb2dVertex
 10
92.4448536256753
 20
15.16221599718014
 30
0.0
  0
VERTEX
  5
17C2
330
17A8
100
AcDbEntity
  8
0
 62
     7
370
     0
100
AcDbVertex
100
AcDb2dVertex
 10
92.49256819815796
 20
15.20975831488847
 30
0.0
  0
VERTEX
  5
17C3
330
17A8
100
AcDbEntity
  8
0
 62
     7
370
     0
100
AcDbVertex
100
AcDb2dVertex
 10
92.53356483444267
 20
15.25867867079125
 30
0.0
  0
VERTEX
  5
17C4
330
17A8
100
AcDbEntity
  8
0
 62
     7
370
     0
100
AcDbVertex
100
AcDb2dVertex
 10
92.56577647723782
 20
15.30863255533987
 30
0.0
  0
VERTEX
  5
17C5
330
17A8
100
AcDbEntity
  8
0
 62
     7
370
     0
100
AcDbVertex
100
AcDb2dVertex
 10
92.59127018383503
 20
15.36065349718014
 30
0.0
  0
VERTEX
  5
17C6
330
17A8
100
AcDbEntity
  8
0
 62
     7
370
     0
100
AcDbVertex
100
AcDb2dVertex
 10
92.60901242558849
 20
15.41267443902042
 30
0.0
  0
VERTEX
  5
17C7
330
17A8
100
AcDbEntity
  8
0
 62
     7
370
     0
100
AcDbVertex
100
AcDb2dVertex
 10
92.61676389043225
 20
15.46503989040931
 30
0.0
  0
VERTEX
  5
17C8
330
17A8
100
AcDbEntity
  8
0
 62
     7
370
     0
100
AcDbVertex
100
AcDb2dVertex
 10
92.61676389043225
 20
15.5146492654093
 30
0.0
  0
VERTEX
  5
17C9
330
17A8
100
AcDbEntity
  8
0
 62
     7
370
     0
100
AcDbVertex
100
AcDb2dVertex
 10
92.60901242558849
 20
15.56563667860375
 30
0.0
  0
VERTEX
  5
17CA
330
17A8
100
AcDbEntity
  8
0
 62
     7
370
     0
100
AcDbVertex
100
AcDb2dVertex
 10
92.59127018383503
 20
15.61214546766625
 30
0.0
  0
SEQEND
  5
17CB
330
17A8
100
AcDbEntity
  8
0
 62
     7
370
     0
  0
POLYLINE
  5
17CC
330
156B
100
AcDbEntity
  8
0
 62
     7
370
     0
100
AcDb2dPolyline
 66
     1
 10
0.0
 20
0.0
 30
0.0
  0
VERTEX
  5
17CD
330
17CC
100
AcDbEntity
  8
0
 62
     7
370
     0
100
AcDbVertex
100
AcDb2dVertex
 10
91.69657888609199
 20
16.28187203016625
 30
0.0
  0
VERTEX
  5
17CE
330
17CC
100
AcDbEntity
  8
0
 62
     7
370
     0
100
AcDbVertex
100
AcDb2dVertex
 10
91.64559147289754
 20
16.25189969943707
 30
0.0
  0
VERTEX
  5
17CF
330
17CC
100
AcDbEntity
  8
0
 62
     7
370
     0
100
AcDbVertex
100
AcDb2dVertex
 10
91.5978769004149
 20
16.21641521593014
 30
0.0
  0
VERTEX
  5
17D0
330
17CC
100
AcDbEntity
  8
0
 62
     7
370
     0
100
AcDbVertex
100
AcDb2dVertex
 10
91.55688026413017
 20
16.17989720377735
 30
0.0
  0
VERTEX
  5
17D1
330
17CC
100
AcDbEntity
  8
0
 62
     7
370
     0
100
AcDbVertex
100
AcDb2dVertex
 10
91.52139578062323
 20
16.13890056749264
 30
0.0
  0
VERTEX
  5
17D2
330
17CC
100
AcDbEntity
  8
0
 62
     7
370
     0
100
AcDbVertex
100
AcDb2dVertex
 10
91.49486854538016
 20
16.09687040256207
 30
0.0
  0
VERTEX
  5
17D3
330
17CC
100
AcDbEntity
  8
0
 62
     7
370
     0
100
AcDbVertex
100
AcDb2dVertex
 10
91.47385346291491
 20
16.05346219943709
 30
0.0
  0
VERTEX
  5
17D4
330
17CC
100
AcDbEntity
  8
0
 62
     7
370
     0
100
AcDbVertex
100
AcDb2dVertex
 10
91.46162337393921
 20
16.00936497721486
 30
0.0
  0
VERTEX
  5
17D5
330
17CC
100
AcDbEntity
  8
0
 62
     7
370
     0
100
AcDbVertex
100
AcDb2dVertex
 10
91.45714474980726
 20
15.96595677408986
 30
0.0
  0
VERTEX
  5
17D6
330
17CC
100
AcDbEntity
  8
0
 62
     7
370
     0
100
AcDbVertex
100
AcDb2dVertex
 10
91.46162337393921
 20
15.92392660915931
 30
0.0
  0
VERTEX
  5
17D7
330
17CC
100
AcDbEntity
  8
0
 62
     7
370
     0
100
AcDbVertex
100
AcDb2dVertex
 10
91.47488699156074
 20
15.88292997287459
 30
0.0
  0
VERTEX
  5
17D8
330
17CC
100
AcDbEntity
  8
0
 62
     7
370
     0
100
AcDbVertex
100
AcDb2dVertex
 10
91.49486854538016
 20
15.84503392252736
 30
0.0
  0
VERTEX
  5
17D9
330
17CC
100
AcDbEntity
  8
0
 62
     7
370
     0
100
AcDbVertex
100
AcDb2dVertex
 10
91.52242930926906
 20
15.81092747721486
 30
0.0
  0
VERTEX
  5
17DA
330
17CC
100
AcDbEntity
  8
0
 62
     7
370
     0
100
AcDbVertex
100
AcDb2dVertex
 10
91.557913792776
 20
15.78095514648569
 30
0.0
  0
VERTEX
  5
17DB
330
17CC
100
AcDbEntity
  8
0
 62
     7
370
     0
100
AcDbVertex
100
AcDb2dVertex
 10
91.59891042906073
 20
15.75408340169403
 30
0.0
  0
VERTEX
  5
17DC
330
17CC
100
AcDbEntity
  8
0
 62
     7
370
     0
100
AcDbVertex
100
AcDb2dVertex
 10
91.64662500154337
 20
15.73306831922875
 30
0.0
  0
VERTEX
  5
17DD
330
17CC
100
AcDbEntity
  8
0
 62
     7
370
     0
100
AcDbVertex
100
AcDb2dVertex
 10
91.69881819815795
 20
15.71653186089543
 30
0.0
  0
VERTEX
  5
17DE
330
17CC
100
AcDbEntity
  8
0
 62
     7
370
     0
100
AcDbVertex
100
AcDb2dVertex
 10
91.75411198071003
 20
15.70757461263153
 30
0.0
  0
VERTEX
  5
17DF
330
17CC
100
AcDbEntity
  8
0
 62
     7
370
     0
100
AcDbVertex
100
AcDb2dVertex
 10
91.81302311352252
 20
15.70309598849958
 30
0.0
  0
VERTEX
  5
17E0
330
17CC
100
AcDbEntity
  8
0
 62
     7
370
     0
100
AcDbVertex
100
AcDb2dVertex
 10
91.87296777498088
 20
15.70550755533986
 30
0.0
  0
VERTEX
  5
17E1
330
17CC
100
AcDbEntity
  8
0
 62
     7
370
     0
100
AcDbVertex
100
AcDb2dVertex
 10
91.93480723895657
 20
15.71308676540931
 30
0.0
  0
VERTEX
  5
17E2
330
17CC
100
AcDbEntity
  8
0
 62
     7
370
     0
100
AcDbVertex
100
AcDb2dVertex
 10
91.99595768383503
 20
15.7254891091593
 30
0.0
  0
VERTEX
  5
17E3
330
17CC
100
AcDbEntity
  8
0
 62
     7
370
     0
100
AcDbVertex
100
AcDb2dVertex
 10
92.05573009051907
 20
15.74409262478431
 30
0.0
  0
VERTEX
  5
17E4
330
17CC
100
AcDbEntity
  8
0
 62
     7
370
     0
100
AcDbVertex
100
AcDb2dVertex
 10
92.11343543991143
 20
15.76855280273569
 30
0.0
  0
VERTEX
  5
17E5
330
17CC
100
AcDbEntity
  8
0
 62
     7
370
     0
100
AcDbVertex
100
AcDb2dVertex
 10
92.16666216517184
 20
15.79645807617319
 30
0.0
  0
VERTEX
  5
17E6
330
17CC
100
AcDbEntity
  8
0
 62
     7
370
     0
100
AcDbVertex
100
AcDb2dVertex
 10
92.21541026630031
 20
15.82953099283986
 30
0.0
  0
VERTEX
  5
17E7
330
17CC
100
AcDbEntity
  8
0
 62
     7
370
     0
100
AcDbVertex
100
AcDb2dVertex
 10
92.25985199807116
 20
15.86604900499265
 30
0.0
  0
VERTEX
  5
17E8
330
17CC
100
AcDbEntity
  8
0
 62
     7
370
     0
100
AcDbVertex
100
AcDb2dVertex
 10
92.29637001022393
 20
15.90601211263153
 30
0.0
  0
VERTEX
  5
17E9
330
17CC
100
AcDbEntity
  8
0
 62
     7
370
     0
100
AcDbVertex
100
AcDb2dVertex
 10
92.32737586959892
 20
15.94700874891626
 30
0.0
  0
VERTEX
  5
17EA
330
17CC
100
AcDbEntity
  8
0
 62
     7
370
     0
100
AcDbVertex
100
AcDb2dVertex
 10
92.35063026413017
 20
15.99145048068709
 30
0.0
  0
VERTEX
  5
17EB
330
17CC
100
AcDbEntity
  8
0
 62
     7
370
     0
100
AcDbVertex
100
AcDb2dVertex
 10
92.36613319381767
 20
16.03485868381207
 30
0.0
  0
VERTEX
  5
17EC
330
17CC
100
AcDbEntity
  8
0
 62
     7
370
     0
100
AcDbVertex
100
AcDb2dVertex
 10
92.37405691343573
 20
16.07792237738847
 30
0.0
  0
VERTEX
  5
17ED
330
17CC
100
AcDbEntity
  8
0
 62
     7
370
     0
100
AcDbVertex
100
AcDb2dVertex
 10
92.3728511300156
 20
16.12236410915931
 30
0.0
  0
VERTEX
  5
17EE
330
17CC
100
AcDbEntity
  8
0
 62
     7
370
     0
100
AcDbVertex
100
AcDb2dVertex
 10
92.36406613652601
 20
16.16232721679819
 30
0.0
  0
VERTEX
  5
17EF
330
17CC
100
AcDbEntity
  8
0
 62
     7
370
     0
100
AcDbVertex
100
AcDb2dVertex
 10
92.34615163999823
 20
16.20091228624264
 30
0.0
  0
VERTEX
  5
17F0
330
17CC
100
AcDbEntity
  8
0
 62
     7
370
     0
100
AcDbVertex
100
AcDb2dVertex
 10
92.32186371682116
 20
16.23743029839542
 30
0.0
  0
VERTEX
  5
17F1
330
17CC
100
AcDbEntity
  8
0
 62
     7
370
     0
100
AcDbVertex
100
AcDb2dVertex
 10
92.289652074026
 20
16.26981419596487
 30
0.0
  0
VERTEX
  5
17F2
330
17CC
100
AcDbEntity
  8
0
 62
     7
370
     0
100
AcDbVertex
100
AcDb2dVertex
 10
92.25089474980725
 20
16.29737495985375
 30
0.0
  0
VERTEX
  5
17F3
330
17CC
100
AcDbEntity
  8
0
 62
     7
370
     0
100
AcDbVertex
100
AcDb2dVertex
 10
92.20541948939059
 20
16.3208016091593
 30
0.0
  0
VERTEX
  5
17F4
330
17CC
100
AcDbEntity
  8
0
 62
     7
370
     0
100
AcDbVertex
100
AcDb2dVertex
 10
92.15563785961629
 20
16.33974963433292
 30
0.0
  0
SEQEND
  5
17F5
330
17CC
100
AcDbEntity
  8
0
 62
     7
370
     0
  0
POLYLINE
  5
17F6
330
156B
100
AcDbEntity
  8
0
 62
     7
370
     0
100
AcDb2dPolyline
 66
     1
 10
0.0
 20
0.0
 30
0.0
  0
VERTEX
  5
17F7
330
17F6
100
AcDbEntity
  8
0
 62
     7
370
     0
100
AcDbVertex
100
AcDb2dVertex
 10
91.43044525978991
 20
15.78095514648569
 30
0.0
  0
VERTEX
  5
17F8
330
17F6
100
AcDbEntity
  8
0
 62
     7
370
     0
100
AcDbVertex
100
AcDb2dVertex
 10
91.3596485475503
 20
15.73444635742319
 30
0.0
  0
VERTEX
  5
17F9
330
17F6
100
AcDbEntity
  8
0
 62
     7
370
     0
100
AcDbVertex
100
AcDb2dVertex
 10
91.29522526196003
 20
15.68655953016625
 30
0.0
  0
VERTEX
  5
17FA
330
17F6
100
AcDbEntity
  8
0
 62
     7
370
     0
100
AcDbVertex
100
AcDb2dVertex
 10
91.23545285527601
 20
15.63453858832597
 30
0.0
  0
VERTEX
  5
17FB
330
17F6
100
AcDbEntity
  8
0
 62
     7
370
     0
100
AcDbVertex
100
AcDb2dVertex
 10
91.1822261300156
 20
15.57907255099958
 30
0.0
  0
VERTEX
  5
17FC
330
17F6
100
AcDbEntity
  8
0
 62
     7
370
     0
100
AcDbVertex
100
AcDb2dVertex
 10
91.13795665301905
 20
15.5236065136732
 30
0.0
  0
VERTEX
  5
17FD
330
17F6
100
AcDbEntity
  8
0
 62
     7
370
     0
100
AcDbVertex
100
AcDb2dVertex
 10
91.09782129060588
 20
15.46607341905513
 30
0.0
  0
VERTEX
  5
17FE
330
17F6
100
AcDbEntity
  8
0
 62
     7
370
     0
100
AcDbVertex
100
AcDb2dVertex
 10
91.06802121465101
 20
15.40716228624264
 30
0.0
  0
VERTEX
  5
17FF
330
17F6
100
AcDbEntity
  8
0
 62
     7
370
     0
100
AcDbVertex
100
AcDb2dVertex
 10
91.0458003487656
 20
15.34859566297875
 30
0.0
  0
VERTEX
  5
1800
330
17F6
100
AcDbEntity
  8
0
 62
     7
370
     0
100
AcDbVertex
100
AcDb2dVertex
 10
91.03133094772394
 20
15.28968453016625
 30
0.0
  0
VERTEX
  5
1801
330
17F6
100
AcDbEntity
  8
0
 62
     7
370
     0
100
AcDbVertex
100
AcDb2dVertex
 10
91.02478526630031
 20
15.23111790690237
 30
0.0
  0
VERTEX
  5
1802
330
17F6
100
AcDbEntity
  8
0
 62
     7
370
     0
100
AcDbVertex
100
AcDb2dVertex
 10
91.02702457836628
 20
15.17427383138153
 30
0.0
  0
VERTEX
  5
1803
330
17F6
100
AcDbEntity
  8
0
 62
     7
370
     0
100
AcDbVertex
100
AcDb2dVertex
 10
91.03804888392184
 20
15.11915230360375
 30
0.0
  0
VERTEX
  5
1804
330
17F6
100
AcDbEntity
  8
0
 62
     7
370
     0
100
AcDbVertex
100
AcDb2dVertex
 10
91.05803043774129
 20
15.06678685221486
 30
0.0
  0
VERTEX
  5
1805
330
17F6
100
AcDbEntity
  8
0
 62
     7
370
     0
100
AcDbVertex
100
AcDb2dVertex
 10
91.08576345640448
 20
15.01717747721485
 30
0.0
  0
VERTEX
  5
1806
330
17F6
100
AcDbEntity
  8
0
 62
     7
370
     0
100
AcDbVertex
100
AcDb2dVertex
 10
91.12004215649127
 20
14.96929064995791
 30
0.0
  0
VERTEX
  5
1807
330
17F6
100
AcDbEntity
  8
0
 62
     7
370
     0
100
AcDbVertex
100
AcDb2dVertex
 10
91.16224457619614
 20
14.92726048502736
 30
0.0
  0
VERTEX
  5
1808
330
17F6
100
AcDbEntity
  8
0
 62
     7
370
     0
100
AcDbVertex
100
AcDb2dVertex
 10
91.21202620597046
 20
14.8883309060343
 30
0.0
  0
VERTEX
  5
1809
330
17F6
100
AcDbEntity
  8
0
 62
     7
370
     0
100
AcDbVertex
100
AcDb2dVertex
 10
91.26869802671697
 20
14.85525798936764
 30
0.0
  0
VERTEX
  5
180A
330
17F6
100
AcDbEntity
  8
0
 62
     7
370
     0
100
AcDbVertex
100
AcDb2dVertex
 10
91.33088200024129
 20
14.82528565863848
 30
0.0
  0
VERTEX
  5
180B
330
17F6
100
AcDbEntity
  8
0
 62
     7
370
     0
100
AcDbVertex
100
AcDb2dVertex
 10
91.3994394004149
 20
14.80185900933293
 30
0.0
  0
VERTEX
  5
180C
330
17F6
100
AcDbEntity
  8
0
 62
     7
370
     0
100
AcDbVertex
100
AcDb2dVertex
 10
91.47144189607463
 20
14.78187745551347
 30
0.0
  0
VERTEX
  5
180D
330
17F6
100
AcDbEntity
  8
0
 62
     7
370
     0
100
AcDbVertex
100
AcDb2dVertex
 10
91.54912879928643
 20
14.76878609266626
 30
0.0
  0
VERTEX
  5
180E
330
17F6
100
AcDbEntity
  8
0
 62
     7
370
     0
100
AcDbVertex
100
AcDb2dVertex
 10
91.63008854321004
 20
14.76086237304819
 30
0.0
  0
VERTEX
  5
180F
330
17F6
100
AcDbEntity
  8
0
 62
     7
370
     0
100
AcDbVertex
100
AcDb2dVertex
 10
91.71311534442532
 20
14.75982884440236
 30
0.0
  0
VERTEX
  5
1810
330
17F6
100
AcDbEntity
  8
0
 62
     7
370
     0
100
AcDbVertex
100
AcDb2dVertex
 10
91.79752018383503
 20
14.76327393988848
 30
0.0
  0
VERTEX
  5
1811
330
17F6
100
AcDbEntity
  8
0
 62
     7
370
     0
100
AcDbVertex
100
AcDb2dVertex
 10
91.88399208053644
 20
14.77326471679819
 30
0.0
  0
VERTEX
  5
1812
330
17F6
100
AcDbEntity
  8
0
 62
     7
370
     0
100
AcDbVertex
100
AcDb2dVertex
 10
91.97149750588364
 20
14.78876764648569
 30
0.0
  0
VERTEX
  5
1813
330
17F6
100
AcDbEntity
  8
0
 62
     7
370
     0
100
AcDbVertex
100
AcDb2dVertex
 10
92.05796940258503
 20
14.80978272895098
 30
0.0
  0
VERTEX
  5
1814
330
17F6
100
AcDbEntity
  8
0
 62
     7
370
     0
100
AcDbVertex
100
AcDb2dVertex
 10
92.14116845857462
 20
14.83424290690236
 30
0.0
  0
VERTEX
  5
1815
330
17F6
100
AcDbEntity
  8
0
 62
     7
370
     0
100
AcDbVertex
100
AcDb2dVertex
 10
92.2243675145642
 20
14.86628229492319
 30
0.0
  0
VERTEX
  5
1816
330
17F6
100
AcDbEntity
  8
0
 62
     7
370
     0
100
AcDbVertex
100
AcDb2dVertex
 10
92.30412147506767
 20
14.90176677843014
 30
0.0
  0
VERTEX
  5
1817
330
17F6
100
AcDbEntity
  8
0
 62
     7
370
     0
100
AcDbVertex
100
AcDb2dVertex
 10
92.38060259485934
 20
14.94172988606903
 30
0.0
  0
VERTEX
  5
1818
330
17F6
100
AcDbEntity
  8
0
 62
     7
370
     0
100
AcDbVertex
100
AcDb2dVertex
 10
92.45157156187323
 20
14.98617161783986
 30
0.0
  0
VERTEX
  5
1819
330
17F6
100
AcDbEntity
  8
0
 62
     7
370
     0
100
AcDbVertex
100
AcDb2dVertex
 10
92.51806190475518
 20
15.03233589735376
 30
0.0
  0
VERTEX
  5
181A
330
17F6
100
AcDbEntity
  8
0
 62
     7
370
     0
100
AcDbVertex
100
AcDb2dVertex
 10
92.57904009485933
 20
15.08470134874264
 30
0.0
  0
VERTEX
  5
181B
330
17F6
100
AcDbEntity
  8
0
 62
     7
370
     0
100
AcDbVertex
100
AcDb2dVertex
 10
92.6334726035399
 20
15.13775581922874
 30
0.0
  0
VERTEX
  5
181C
330
17F6
100
AcDbEntity
  8
0
 62
     7
370
     0
100
AcDbVertex
100
AcDb2dVertex
 10
92.68222070466837
 20
15.19322185655514
 30
0.0
  0
VERTEX
  5
181D
330
17F6
100
AcDbEntity
  8
0
 62
     7
370
     0
100
AcDbVertex
100
AcDb2dVertex
 10
92.72201155753295
 20
15.2507549511732
 30
0.0
  0
VERTEX
  5
181E
330
17F6
100
AcDbEntity
  8
0
 62
     7
370
     0
100
AcDbVertex
100
AcDb2dVertex
 10
92.75525672897392
 20
15.30863255533987
 30
0.0
  0
VERTEX
  5
181F
330
17F6
100
AcDbEntity
  8
0
 62
     7
370
     0
100
AcDbVertex
100
AcDb2dVertex
 10
92.77971690692531
 20
15.36961074544402
 30
0.0
  0
VERTEX
  5
1820
330
17F6
100
AcDbEntity
  8
0
 62
     7
370
     0
100
AcDbVertex
100
AcDb2dVertex
 10
92.79745914867879
 20
15.42817736870792
 30
0.0
  0
VERTEX
  5
1821
330
17F6
100
AcDbEntity
  8
0
 62
     7
370
     0
100
AcDbVertex
100
AcDb2dVertex
 10
92.80624414216836
 20
15.48605497287458
 30
0.0
  0
VERTEX
  5
1822
330
17F6
100
AcDbEntity
  8
0
 62
     7
370
     0
100
AcDbVertex
100
AcDb2dVertex
 10
92.80624414216836
 20
15.54358806749263
 30
0.0
  0
VERTEX
  5
1823
330
17F6
100
AcDbEntity
  8
0
 62
     7
370
     0
100
AcDbVertex
100
AcDb2dVertex
 10
92.79745914867879
 20
15.59905410481903
 30
0.0
  0
VERTEX
  5
1824
330
17F6
100
AcDbEntity
  8
0
 62
     7
370
     0
100
AcDbVertex
100
AcDb2dVertex
 10
92.78075043557114
 20
15.65210857530513
 30
0.0
  0
VERTEX
  5
1825
330
17F6
100
AcDbEntity
  8
0
 62
     7
370
     0
100
AcDbVertex
100
AcDb2dVertex
 10
92.75525672897392
 20
15.70309598849958
 30
0.0
  0
VERTEX
  5
1826
330
17F6
100
AcDbEntity
  8
0
 62
     7
370
     0
100
AcDbVertex
100
AcDb2dVertex
 10
92.72425086959893
 20
15.75098281575653
 30
0.0
  0
VERTEX
  5
1827
330
17F6
100
AcDbEntity
  8
0
 62
     7
370
     0
100
AcDbVertex
100
AcDb2dVertex
 10
92.68446001673435
 20
15.79404650933293
 30
0.0
  0
VERTEX
  5
1828
330
17F6
100
AcDbEntity
  8
0
 62
     7
370
     0
100
AcDbVertex
100
AcDb2dVertex
 10
92.63553966083156
 20
15.83504314561764
 30
0.0
  0
VERTEX
  5
1829
330
17F6
100
AcDbEntity
  8
0
 62
     7
370
     0
100
AcDbVertex
100
AcDb2dVertex
 10
92.58127940692531
 20
15.86949410047876
 30
0.0
  0
VERTEX
  5
182A
330
17F6
100
AcDbEntity
  8
0
 62
     7
370
     0
100
AcDbVertex
100
AcDb2dVertex
 10
92.52030121682116
 20
15.90049995985376
 30
0.0
  0
VERTEX
  5
182B
330
17F6
100
AcDbEntity
  8
0
 62
     7
370
     0
100
AcDbVertex
100
AcDb2dVertex
 10
92.45484440258504
 20
15.92599366645098
 30
0.0
  0
VERTEX
  5
182C
330
17F6
100
AcDbEntity
  8
0
 62
     7
370
     0
100
AcDbVertex
100
AcDb2dVertex
 10
92.3828419069253
 20
15.94700874891626
 30
0.0
  0
SEQEND
  5
182D
330
17F6
100
AcDbEntity
  8
0
 62
     7
370
     0
  0
POLYLINE
  5
182E
330
156B
100
AcDbEntity
  8
0
 62
     7
370
     0
100
AcDb2dPolyline
 66
     1
 10
0.0
 20
0.0
 30
0.0
  0
VERTEX
  5
182F
330
182E
100
AcDbEntity
  8
0
 62
     7
370
     0
100
AcDbVertex
100
AcDb2dVertex
 10
91.14002371031073
 20
13.93059436089541
 30
0.0
  0
VERTEX
  5
1830
330
182E
100
AcDbEntity
  8
0
 62
     7
370
     0
100
AcDbVertex
100
AcDb2dVertex
 10
91.14553586308851
 20
13.88408557183291
 30
0.0
  0
VERTEX
  5
1831
330
182E
100
AcDbEntity
  8
0
 62
     7
370
     0
100
AcDbVertex
100
AcDb2dVertex
 10
91.15897173548434
 20
13.83964384006208
 30
0.0
  0
VERTEX
  5
1832
330
182E
100
AcDbEntity
  8
0
 62
     7
370
     0
100
AcDbVertex
100
AcDb2dVertex
 10
91.17998681794963
 20
13.79520210829125
 30
0.0
  0
VERTEX
  5
1833
330
182E
100
AcDbEntity
  8
0
 62
     7
370
     0
100
AcDbVertex
100
AcDb2dVertex
 10
91.20875336525864
 20
13.7566170388468
 30
0.0
  0
VERTEX
  5
1834
330
182E
100
AcDbEntity
  8
0
 62
     7
370
     0
100
AcDbVertex
100
AcDb2dVertex
 10
91.24544363218573
 20
13.71872098849958
 30
0.0
  0
VERTEX
  5
1835
330
182E
100
AcDbEntity
  8
0
 62
     7
370
     0
100
AcDbVertex
100
AcDb2dVertex
 10
91.28971310918226
 20
13.68771512912458
 30
0.0
  0
VERTEX
  5
1836
330
182E
100
AcDbEntity
  8
0
 62
     7
370
     0
100
AcDbVertex
100
AcDb2dVertex
 10
91.33966699373088
 20
13.65774279839542
 30
0.0
  0
VERTEX
  5
1837
330
182E
100
AcDbEntity
  8
0
 62
     7
370
     0
100
AcDbVertex
100
AcDb2dVertex
 10
91.39616655970309
 20
13.63362712999264
 30
0.0
  0
VERTEX
  5
1838
330
182E
100
AcDbEntity
  8
0
 62
     7
370
     0
100
AcDbVertex
100
AcDb2dVertex
 10
91.45817827845309
 20
13.61226753797875
 30
0.0
  0
VERTEX
  5
1839
330
182E
100
AcDbEntity
  8
0
 62
     7
370
     0
100
AcDbVertex
100
AcDb2dVertex
 10
91.52484087610934
 20
13.59573107964542
 30
0.0
  0
VERTEX
  5
183A
330
182E
100
AcDbEntity
  8
0
 62
     7
370
     0
100
AcDbVertex
100
AcDb2dVertex
 10
91.59563758834892
 20
13.58470677408986
 30
0.0
  0
VERTEX
  5
183B
330
182E
100
AcDbEntity
  8
0
 62
     7
370
     0
100
AcDbVertex
100
AcDb2dVertex
 10
91.67005165084892
 20
13.57816109266625
 30
0.0
  0
VERTEX
  5
183C
330
182E
100
AcDbEntity
  8
0
 62
     7
370
     0
100
AcDbVertex
100
AcDb2dVertex
 10
91.74756629928642
 20
13.5767830544718
 30
0.0
  0
VERTEX
  5
183D
330
182E
100
AcDbEntity
  8
0
 62
     7
370
     0
100
AcDbVertex
100
AcDb2dVertex
 10
91.82628673114406
 20
13.58126167860375
 30
0.0
  0
VERTEX
  5
183E
330
182E
100
AcDbEntity
  8
0
 62
     7
370
     0
100
AcDbVertex
100
AcDb2dVertex
 10
91.90604069164754
 20
13.59021892686763
 30
0.0
  0
VERTEX
  5
183F
330
182E
100
AcDbEntity
  8
0
 62
     7
370
     0
100
AcDbVertex
100
AcDb2dVertex
 10
91.9859669069253
 20
13.60468832790931
 30
0.0
  0
VERTEX
  5
1840
330
182E
100
AcDbEntity
  8
0
 62
     7
370
     0
100
AcDbVertex
100
AcDb2dVertex
 10
92.0634815553628
 20
13.62363635308293
 30
0.0
  0
VERTEX
  5
1841
330
182E
100
AcDbEntity
  8
0
 62
     7
370
     0
100
AcDbVertex
100
AcDb2dVertex
 10
92.14116845857462
 20
13.64568496419403
 30
0.0
  0
VERTEX
  5
1842
330
182E
100
AcDbEntity
  8
0
 62
     7
370
     0
100
AcDbVertex
100
AcDb2dVertex
 10
92.21644379494614
 20
13.67324572808292
 30
0.0
  0
VERTEX
  5
1843
330
182E
100
AcDbEntity
  8
0
 62
     7
370
     0
100
AcDbVertex
100
AcDb2dVertex
 10
92.28861854538017
 20
13.70562962565236
 30
0.0
  0
VERTEX
  5
1844
330
182E
100
AcDbEntity
  8
0
 62
     7
370
     0
100
AcDbVertex
100
AcDb2dVertex
 10
92.35614241690795
 20
13.73973607096486
 30
0.0
  0
VERTEX
  5
1845
330
182E
100
AcDbEntity
  8
0
 62
     7
370
     0
100
AcDbVertex
100
AcDb2dVertex
 10
92.41935991907809
 20
13.77763212131208
 30
0.0
  0
VERTEX
  5
1846
330
182E
100
AcDbEntity
  8
0
 62
     7
370
     0
100
AcDbVertex
100
AcDb2dVertex
 10
92.47809879711629
 20
13.81966228624264
 30
0.0
  0
VERTEX
  5
1847
330
182E
100
AcDbEntity
  8
0
 62
     7
370
     0
100
AcDbVertex
100
AcDb2dVertex
 10
92.53029199373086
 20
13.86410401801348
 30
0.0
  0
VERTEX
  5
1848
330
182E
100
AcDbEntity
  8
0
 62
     7
370
     0
100
AcDbVertex
100
AcDb2dVertex
 10
92.57576725414754
 20
13.91061280707598
 30
0.0
  0
VERTEX
  5
1849
330
182E
100
AcDbEntity
  8
0
 62
     7
370
     0
100
AcDbVertex
100
AcDb2dVertex
 10
92.61452457836629
 20
13.95712159613848
 30
0.0
  0
VERTEX
  5
184A
330
182E
100
AcDbEntity
  8
0
 62
     7
370
     0
100
AcDbVertex
100
AcDb2dVertex
 10
92.64553043774128
 20
14.00604195204124
 30
0.0
  0
VERTEX
  5
184B
330
182E
100
AcDbEntity
  8
0
 62
     7
370
     0
100
AcDbVertex
100
AcDb2dVertex
 10
92.66878483227253
 20
14.05461779839541
 30
0.0
  0
VERTEX
  5
184C
330
182E
100
AcDbEntity
  8
0
 62
     7
370
     0
100
AcDbVertex
100
AcDb2dVertex
 10
92.68549354538018
 20
14.10457168294402
 30
0.0
  0
VERTEX
  5
184D
330
182E
100
AcDbEntity
  8
0
 62
     7
370
     0
100
AcDbVertex
100
AcDb2dVertex
 10
92.69100569815796
 20
14.1534920388468
 30
0.0
  0
SEQEND
  5
184E
330
182E
100
AcDbEntity
  8
0
 62
     7
370
     0
  0
POLYLINE
  5
184F
330
156B
100
AcDbEntity
  8
0
 62
     7
370
     0
100
AcDb2dPolyline
 66
     1
 10
0.0
 20
0.0
 30
0.0
  0
VERTEX
  5
1850
330
184F
100
AcDbEntity
  8
0
 62
     7
370
     0
100
AcDbVertex
100
AcDb2dVertex
 10
91.14002371031073
 20
14.60238798068708
 30
0.0
  0
VERTEX
  5
1851
330
184F
100
AcDbEntity
  8
0
 62
     7
370
     0
100
AcDbVertex
100
AcDb2dVertex
 10
91.14553586308851
 20
14.55484566297875
 30
0.0
  0
VERTEX
  5
1852
330
184F
100
AcDbEntity
  8
0
 62
     7
370
     0
100
AcDbVertex
100
AcDb2dVertex
 10
91.15897173548434
 20
14.51040393120791
 30
0.0
  0
VERTEX
  5
1853
330
184F
100
AcDbEntity
  8
0
 62
     7
370
     0
100
AcDbVertex
100
AcDb2dVertex
 10
91.17998681794963
 20
14.46699572808292
 30
0.0
  0
VERTEX
  5
1854
330
184F
100
AcDbEntity
  8
0
 62
     7
370
     0
100
AcDbVertex
100
AcDb2dVertex
 10
91.20875336525864
 20
14.42737712999263
 30
0.0
  0
VERTEX
  5
1855
330
184F
100
AcDbEntity
  8
0
 62
     7
370
     0
100
AcDbVertex
100
AcDb2dVertex
 10
91.24544363218573
 20
14.39051460829125
 30
0.0
  0
VERTEX
  5
1856
330
184F
100
AcDbEntity
  8
0
 62
     7
370
     0
100
AcDbVertex
100
AcDb2dVertex
 10
91.28971310918226
 20
14.35744169162459
 30
0.0
  0
VERTEX
  5
1857
330
184F
100
AcDbEntity
  8
0
 62
     7
370
     0
100
AcDbVertex
100
AcDb2dVertex
 10
91.33966699373088
 20
14.32850288954125
 30
0.0
  0
VERTEX
  5
1858
330
184F
100
AcDbEntity
  8
0
 62
     7
370
     0
100
AcDbVertex
100
AcDb2dVertex
 10
91.39616655970309
 20
14.30300918294404
 30
0.0
  0
VERTEX
  5
1859
330
184F
100
AcDbEntity
  8
0
 62
     7
370
     0
100
AcDbVertex
100
AcDb2dVertex
 10
91.45817827845309
 20
14.28199410047875
 30
0.0
  0
VERTEX
  5
185A
330
184F
100
AcDbEntity
  8
0
 62
     7
370
     0
100
AcDbVertex
100
AcDb2dVertex
 10
91.52484087610934
 20
14.26545764214542
 30
0.0
  0
VERTEX
  5
185B
330
184F
100
AcDbEntity
  8
0
 62
     7
370
     0
100
AcDbVertex
100
AcDb2dVertex
 10
91.59563758834892
 20
14.25546686523569
 30
0.0
  0
VERTEX
  5
185C
330
184F
100
AcDbEntity
  8
0
 62
     7
370
     0
100
AcDbVertex
100
AcDb2dVertex
 10
91.67005165084892
 20
14.24857667426347
 30
0.0
  0
VERTEX
  5
185D
330
184F
100
AcDbEntity
  8
0
 62
     7
370
     0
100
AcDbVertex
100
AcDb2dVertex
 10
91.74756629928642
 20
14.24754314561764
 30
0.0
  0
VERTEX
  5
185E
330
184F
100
AcDbEntity
  8
0
 62
     7
370
     0
100
AcDbVertex
100
AcDb2dVertex
 10
91.82628673114406
 20
14.25202176974959
 30
0.0
  0
VERTEX
  5
185F
330
184F
100
AcDbEntity
  8
0
 62
     7
370
     0
100
AcDbVertex
100
AcDb2dVertex
 10
91.90604069164754
 20
14.26097901801347
 30
0.0
  0
VERTEX
  5
1860
330
184F
100
AcDbEntity
  8
0
 62
     7
370
     0
100
AcDbVertex
100
AcDb2dVertex
 10
91.9859669069253
 20
14.27407038086071
 30
0.0
  0
VERTEX
  5
1861
330
184F
100
AcDbEntity
  8
0
 62
     7
370
     0
100
AcDbVertex
100
AcDb2dVertex
 10
92.0634815553628
 20
14.29301840603431
 30
0.0
  0
VERTEX
  5
1862
330
184F
100
AcDbEntity
  8
0
 62
     7
370
     0
100
AcDbVertex
100
AcDb2dVertex
 10
92.14116845857462
 20
14.31644505533987
 30
0.0
  0
VERTEX
  5
1863
330
184F
100
AcDbEntity
  8
0
 62
     7
370
     0
100
AcDbVertex
100
AcDb2dVertex
 10
92.21644379494614
 20
14.34297229058292
 30
0.0
  0
VERTEX
  5
1864
330
184F
100
AcDbEntity
  8
0
 62
     7
370
     0
100
AcDbVertex
100
AcDb2dVertex
 10
92.28861854538017
 20
14.37501167860375
 30
0.0
  0
VERTEX
  5
1865
330
184F
100
AcDbEntity
  8
0
 62
     7
370
     0
100
AcDbVertex
100
AcDb2dVertex
 10
92.35614241690795
 20
14.41049616211069
 30
0.0
  0
VERTEX
  5
1866
330
184F
100
AcDbEntity
  8
0
 62
     7
370
     0
100
AcDbVertex
100
AcDb2dVertex
 10
92.41935991907809
 20
14.44942574110375
 30
0.0
  0
VERTEX
  5
1867
330
184F
100
AcDbEntity
  8
0
 62
     7
370
     0
100
AcDbVertex
100
AcDb2dVertex
 10
92.47809879711629
 20
14.49042237738848
 30
0.0
  0
VERTEX
  5
1868
330
184F
100
AcDbEntity
  8
0
 62
     7
370
     0
100
AcDbVertex
100
AcDb2dVertex
 10
92.53029199373086
 20
14.53486410915931
 30
0.0
  0
VERTEX
  5
1869
330
184F
100
AcDbEntity
  8
0
 62
     7
370
     0
100
AcDbVertex
100
AcDb2dVertex
 10
92.57576725414754
 20
14.58137289822181
 30
0.0
  0
VERTEX
  5
186A
330
184F
100
AcDbEntity
  8
0
 62
     7
370
     0
100
AcDbVertex
100
AcDb2dVertex
 10
92.61452457836629
 20
14.62788168728431
 30
0.0
  0
VERTEX
  5
186B
330
184F
100
AcDbEntity
  8
0
 62
     7
370
     0
100
AcDbVertex
100
AcDb2dVertex
 10
92.64553043774128
 20
14.67680204318708
 30
0.0
  0
VERTEX
  5
186C
330
184F
100
AcDbEntity
  8
0
 62
     7
370
     0
100
AcDbVertex
100
AcDb2dVertex
 10
92.66878483227253
 20
14.72641141818708
 30
0.0
  0
VERTEX
  5
186D
330
184F
100
AcDbEntity
  8
0
 62
     7
370
     0
100
AcDbVertex
100
AcDb2dVertex
 10
92.68549354538018
 20
14.77533177408986
 30
0.0
  0
VERTEX
  5
186E
330
184F
100
AcDbEntity
  8
0
 62
     7
370
     0
100
AcDbVertex
100
AcDb2dVertex
 10
92.69100569815796
 20
14.8228740917982
 30
0.0
  0
SEQEND
  5
186F
330
184F
100
AcDbEntity
  8
0
 62
     7
370
     0
  0
POLYLINE
  5
1870
330
156B
100
AcDbEntity
  8
0
 62
     7
370
     0
100
AcDb2dPolyline
 66
     1
 10
0.0
 20
0.0
 30
0.0
  0
VERTEX
  5
1871
330
1870
100
AcDbEntity
  8
0
 62
     7
370
     0
100
AcDbVertex
100
AcDb2dVertex
 10
91.11676931577948
 20
14.23204021593014
 30
0.0
  0
VERTEX
  5
1872
330
1870
100
AcDbEntity
  8
0
 62
     7
370
     0
100
AcDbVertex
100
AcDb2dVertex
 10
91.06905474329684
 20
14.17898574544404
 30
0.0
  0
VERTEX
  5
1873
330
1870
100
AcDbEntity
  8
0
 62
     7
370
     0
100
AcDbVertex
100
AcDb2dVertex
 10
91.02926389043226
 20
14.12214166992319
 30
0.0
  0
VERTEX
  5
1874
330
1870
100
AcDbEntity
  8
0
 62
     7
370
     0
100
AcDbVertex
100
AcDb2dVertex
 10
90.99705224763713
 20
14.06564210395098
 30
0.0
  0
VERTEX
  5
1875
330
1870
100
AcDbEntity
  8
0
 62
     7
370
     0
100
AcDbVertex
100
AcDb2dVertex
 10
90.9715585410399
 20
14.0105205761732
 30
0.0
  0
VERTEX
  5
1876
330
1870
100
AcDbEntity
  8
0
 62
     7
370
     0
100
AcDbVertex
100
AcDb2dVertex
 10
90.95484982793227
 20
13.95367650065236
 30
0.0
  0
VERTEX
  5
1877
330
1870
100
AcDbEntity
  8
0
 62
     7
370
     0
100
AcDbVertex
100
AcDb2dVertex
 10
90.94727061786281
 20
13.89855497287459
 30
0.0
  0
VERTEX
  5
1878
330
1870
100
AcDbEntity
  8
0
 62
     7
370
     0
100
AcDbVertex
100
AcDb2dVertex
 10
90.94727061786281
 20
13.84515599283986
 30
0.0
  0
VERTEX
  5
1879
330
1870
100
AcDbEntity
  8
0
 62
     7
370
     0
100
AcDbVertex
100
AcDb2dVertex
 10
90.95484982793227
 20
13.79210152235376
 30
0.0
  0
VERTEX
  5
187A
330
1870
100
AcDbEntity
  8
0
 62
     7
370
     0
100
AcDbVertex
100
AcDb2dVertex
 10
90.9715585410399
 20
13.74214763780514
 30
0.0
  0
VERTEX
  5
187B
330
1870
100
AcDbEntity
  8
0
 62
     7
370
     0
100
AcDbVertex
100
AcDb2dVertex
 10
90.99601871899128
 20
13.69563884874265
 30
0.0
  0
VERTEX
  5
187C
330
1870
100
AcDbEntity
  8
0
 62
     7
370
     0
100
AcDbVertex
100
AcDb2dVertex
 10
91.02805810701212
 20
13.65016358832596
 30
0.0
  0
VERTEX
  5
187D
330
1870
100
AcDbEntity
  8
0
 62
     7
370
     0
100
AcDbVertex
100
AcDb2dVertex
 10
91.06905474329684
 20
13.60813342339543
 30
0.0
  0
VERTEX
  5
187E
330
1870
100
AcDbEntity
  8
0
 62
     7
370
     0
100
AcDbVertex
100
AcDb2dVertex
 10
91.11573578713365
 20
13.5702373730482
 30
0.0
  0
VERTEX
  5
187F
330
1870
100
AcDbEntity
  8
0
 62
     7
370
     0
100
AcDbVertex
100
AcDb2dVertex
 10
91.16896251239406
 20
13.53716445638153
 30
0.0
  0
VERTEX
  5
1880
330
1870
100
AcDbEntity
  8
0
 62
     7
370
     0
100
AcDbVertex
100
AcDb2dVertex
 10
91.23097423114407
 20
13.50719212565236
 30
0.0
  0
VERTEX
  5
1881
330
1870
100
AcDbEntity
  8
0
 62
     7
370
     0
100
AcDbVertex
100
AcDb2dVertex
 10
91.29643104538017
 20
13.48273194770098
 30
0.0
  0
VERTEX
  5
1882
330
1870
100
AcDbEntity
  8
0
 62
     7
370
     0
100
AcDbVertex
100
AcDb2dVertex
 10
91.36843354103991
 20
13.4617168652357
 30
0.0
  0
VERTEX
  5
1883
330
1870
100
AcDbEntity
  8
0
 62
     7
370
     0
100
AcDbVertex
100
AcDb2dVertex
 10
91.44388113218573
 20
13.4462139355482
 30
0.0
  0
VERTEX
  5
1884
330
1870
100
AcDbEntity
  8
0
 62
     7
370
     0
100
AcDbVertex
100
AcDb2dVertex
 10
91.52363509268921
 20
13.43622315863848
 30
0.0
  0
VERTEX
  5
1885
330
1870
100
AcDbEntity
  8
0
 62
     7
370
     0
100
AcDbVertex
100
AcDb2dVertex
 10
91.60786767732462
 20
13.43174453450652
 30
0.0
  0
VERTEX
  5
1886
330
1870
100
AcDbEntity
  8
0
 62
     7
370
     0
100
AcDbVertex
100
AcDb2dVertex
 10
91.69433957402601
 20
13.43174453450652
 30
0.0
  0
VERTEX
  5
1887
330
1870
100
AcDbEntity
  8
0
 62
     7
370
     0
100
AcDbVertex
100
AcDb2dVertex
 10
91.78201725414753
 20
13.4372566872843
 30
0.0
  0
VERTEX
  5
1888
330
1870
100
AcDbEntity
  8
0
 62
     7
370
     0
100
AcDbVertex
100
AcDb2dVertex
 10
91.8705562081406
 20
13.44724746419402
 30
0.0
  0
VERTEX
  5
1889
330
1870
100
AcDbEntity
  8
0
 62
     7
370
     0
100
AcDbVertex
100
AcDb2dVertex
 10
91.96030094555379
 20
13.46378392252737
 30
0.0
  0
VERTEX
  5
188A
330
1870
100
AcDbEntity
  8
0
 62
     7
370
     0
100
AcDbVertex
100
AcDb2dVertex
 10
92.05021793774127
 20
13.48479900499265
 30
0.0
  0
VERTEX
  5
188B
330
1870
100
AcDbEntity
  8
0
 62
     7
370
     0
100
AcDbVertex
100
AcDb2dVertex
 10
92.13772336308851
 20
13.50925918294402
 30
0.0
  0
VERTEX
  5
188C
330
1870
100
AcDbEntity
  8
0
 62
     7
370
     0
100
AcDbVertex
100
AcDb2dVertex
 10
92.2243675145642
 20
13.5392315136732
 30
0.0
  0
VERTEX
  5
188D
330
1870
100
AcDbEntity
  8
0
 62
     7
370
     0
100
AcDbVertex
100
AcDb2dVertex
 10
92.30842784442531
 20
13.57264893988846
 30
0.0
  0
VERTEX
  5
188E
330
1870
100
AcDbEntity
  8
0
 62
     7
370
     0
100
AcDbVertex
100
AcDb2dVertex
 10
92.38835405970309
 20
13.61123400933292
 30
0.0
  0
VERTEX
  5
188F
330
1870
100
AcDbEntity
  8
0
 62
     7
370
     0
100
AcDbVertex
100
AcDb2dVertex
 10
92.46483517949476
 20
13.65326417426348
 30
0.0
  0
VERTEX
  5
1890
330
1870
100
AcDbEntity
  8
0
 62
     7
370
     0
100
AcDbVertex
100
AcDb2dVertex
 10
92.53580414650866
 20
13.69908394422876
 30
0.0
  0
VERTEX
  5
1891
330
1870
100
AcDbEntity
  8
0
 62
     7
370
     0
100
AcDbVertex
100
AcDb2dVertex
 10
92.60229448939059
 20
13.74524822374263
 30
0.0
  0
VERTEX
  5
1892
330
1870
100
AcDbEntity
  8
0
 62
     7
370
     0
100
AcDbVertex
100
AcDb2dVertex
 10
92.66223915084893
 20
13.79520210829125
 30
0.0
  0
VERTEX
  5
1893
330
1870
100
AcDbEntity
  8
0
 62
     7
370
     0
100
AcDbVertex
100
AcDb2dVertex
 10
92.71649940475517
 20
13.84860108832598
 30
0.0
  0
VERTEX
  5
1894
330
1870
100
AcDbEntity
  8
0
 62
     7
370
     0
100
AcDbVertex
100
AcDb2dVertex
 10
92.76300819381768
 20
13.90406712565236
 30
0.0
  0
VERTEX
  5
1895
330
1870
100
AcDbEntity
  8
0
 62
     7
370
     0
100
AcDbVertex
100
AcDb2dVertex
 10
92.8041770848767
 20
13.9581551247843
 30
0.0
  0
VERTEX
  5
1896
330
1870
100
AcDbEntity
  8
0
 62
     7
370
     0
100
AcDbVertex
100
AcDb2dVertex
 10
92.83501068947741
 20
14.01465469075653
 30
0.0
  0
VERTEX
  5
1897
330
1870
100
AcDbEntity
  8
0
 62
     7
370
     0
100
AcDbVertex
100
AcDb2dVertex
 10
92.86050439607462
 20
14.07012072808291
 30
0.0
  0
VERTEX
  5
1898
330
1870
100
AcDbEntity
  8
0
 62
     7
370
     0
100
AcDbVertex
100
AcDb2dVertex
 10
92.87738536395655
 20
14.12696480360375
 30
0.0
  0
VERTEX
  5
1899
330
1870
100
AcDbEntity
  8
0
 62
     7
370
     0
100
AcDbVertex
100
AcDb2dVertex
 10
92.88496457402601
 20
14.18346436957597
 30
0.0
  0
VERTEX
  5
189A
330
1870
100
AcDbEntity
  8
0
 62
     7
370
     0
100
AcDbVertex
100
AcDb2dVertex
 10
92.88496457402601
 20
14.23651884006209
 30
0.0
  0
VERTEX
  5
189B
330
1870
100
AcDbEntity
  8
0
 62
     7
370
     0
100
AcDbVertex
100
AcDb2dVertex
 10
92.87738536395655
 20
14.28853978190236
 30
0.0
  0
VERTEX
  5
189C
330
1870
100
AcDbEntity
  8
0
 62
     7
370
     0
100
AcDbVertex
100
AcDb2dVertex
 10
92.85947086742877
 20
14.33952719509681
 30
0.0
  0
VERTEX
  5
189D
330
1870
100
AcDbEntity
  8
0
 62
     7
370
     0
100
AcDbVertex
100
AcDb2dVertex
 10
92.83501068947741
 20
14.38741402235375
 30
0.0
  0
VERTEX
  5
189E
330
1870
100
AcDbEntity
  8
0
 62
     7
370
     0
100
AcDbVertex
100
AcDb2dVertex
 10
92.80297130145656
 20
14.43185575412458
 30
0.0
  0
VERTEX
  5
189F
330
1870
100
AcDbEntity
  8
0
 62
     7
370
     0
100
AcDbVertex
100
AcDb2dVertex
 10
92.76197466517185
 20
14.47285239040931
 30
0.0
  0
VERTEX
  5
18A0
330
1870
100
AcDbEntity
  8
0
 62
     7
370
     0
100
AcDbVertex
100
AcDb2dVertex
 10
92.71546587610934
 20
14.51143745985375
 30
0.0
  0
SEQEND
  5
18A1
330
1870
100
AcDbEntity
  8
0
 62
     7
370
     0
  0
LINE
  5
18A2
330
156B
100
AcDbEntity
  8
0
 62
     7
370
     0
100
AcDbLine
 10
93.87491276196003
 20
11.53487495985375
 30
0.0
 11
93.87491276196003
 21
10.7087410622843
 31
0.0
  0
POLYLINE
  5
18A3
330
156B
100
AcDbEntity
  8
0
 62
     7
370
     0
100
AcDb2dPolyline
 66
     1
 10
0.0
 20
0.0
 30
0.0
  0
VERTEX
  5
18A4
330
18A3
100
AcDbEntity
  8
0
 62
     7
370
     0
100
AcDbVertex
100
AcDb2dVertex
 10
93.31284543340101
 20
9.606999525825983
 30
0.0
  0
VERTEX
  5
18A5
330
18A3
100
AcDbEntity
  8
0
 62
     7
370
     0
100
AcDbVertex
100
AcDb2dVertex
 10
93.36279931794962
 20
9.639038913846803
 30
0.0
  0
VERTEX
  5
18A6
330
18A3
100
AcDbEntity
  8
0
 62
     7
370
     0
100
AcDbVertex
100
AcDb2dVertex
 10
93.41051389043226
 20
9.674523397353752
 30
0.0
  0
VERTEX
  5
18A7
330
18A3
100
AcDbEntity
  8
0
 62
     7
370
     0
100
AcDbVertex
100
AcDb2dVertex
 10
93.45598915084892
 20
9.712419447700966
 30
0.0
  0
VERTEX
  5
18A8
330
18A3
100
AcDbEntity
  8
0
 62
     7
370
     0
100
AcDbVertex
100
AcDb2dVertex
 10
93.50025862784546
 20
9.752382555339863
 30
0.0
  0
VERTEX
  5
18A9
330
18A3
100
AcDbEntity
  8
0
 62
     7
370
     0
100
AcDbVertex
100
AcDb2dVertex
 10
93.54125526413017
 20
9.793034682075983
 30
0.0
  0
VERTEX
  5
18AA
330
18A3
100
AcDbEntity
  8
0
 62
     7
370
     0
100
AcDbVertex
100
AcDb2dVertex
 10
93.58225190041491
 20
9.836442885200966
 30
0.0
  0
VERTEX
  5
18AB
330
18A3
100
AcDbEntity
  8
0
 62
     7
370
     0
100
AcDbVertex
100
AcDb2dVertex
 10
93.61894216734198
 20
9.881918145617646
 30
0.0
  0
VERTEX
  5
18AC
330
18A3
100
AcDbEntity
  8
0
 62
     7
370
     0
100
AcDbVertex
100
AcDb2dVertex
 10
93.65546017949474
 20
9.929460463325966
 30
0.0
  0
VERTEX
  5
18AD
330
18A3
100
AcDbEntity
  8
0
 62
     7
370
     0
100
AcDbVertex
100
AcDb2dVertex
 10
93.68767182228991
 20
9.97838081922876
 30
0.0
  0
VERTEX
  5
18AE
330
18A3
100
AcDbEntity
  8
0
 62
     7
370
     0
100
AcDbVertex
100
AcDb2dVertex
 10
93.7186776816649
 20
10.02936823242319
 30
0.0
  0
VERTEX
  5
18AF
330
18A3
100
AcDbEntity
  8
0
 62
     7
370
     0
100
AcDbVertex
100
AcDb2dVertex
 10
93.7464107003281
 20
10.08035564561764
 30
0.0
  0
VERTEX
  5
18B0
330
18A3
100
AcDbEntity
  8
0
 62
     7
370
     0
100
AcDbVertex
100
AcDb2dVertex
 10
93.77190440692531
 20
10.13375462565236
 30
0.0
  0
VERTEX
  5
18B1
330
18A3
100
AcDbEntity
  8
0
 62
     7
370
     0
100
AcDbVertex
100
AcDb2dVertex
 10
93.79515880145657
 20
10.18784262478431
 30
0.0
  0
VERTEX
  5
18B2
330
18A3
100
AcDbEntity
  8
0
 62
     7
370
     0
100
AcDbVertex
100
AcDb2dVertex
 10
93.81393457185586
 20
10.2433086621107
 30
0.0
  0
VERTEX
  5
18B3
330
18A3
100
AcDbEntity
  8
0
 62
     7
370
     0
100
AcDbVertex
100
AcDb2dVertex
 10
93.83184906838364
 20
10.29980822808292
 30
0.0
  0
VERTEX
  5
18B4
330
18A3
100
AcDbEntity
  8
0
 62
     7
370
     0
100
AcDbVertex
100
AcDb2dVertex
 10
93.84735199807115
 20
10.35734132270097
 30
0.0
  0
VERTEX
  5
18B5
330
18A3
100
AcDbEntity
  8
0
 62
     7
370
     0
100
AcDbVertex
100
AcDb2dVertex
 10
93.85940983227254
 20
10.41521892686765
 30
0.0
  0
VERTEX
  5
18B6
330
18A3
100
AcDbEntity
  8
0
 62
     7
370
     0
100
AcDbVertex
100
AcDb2dVertex
 10
93.86733355189059
 20
10.47275202148569
 30
0.0
  0
VERTEX
  5
18B7
330
18A3
100
AcDbEntity
  8
0
 62
     7
370
     0
100
AcDbVertex
100
AcDb2dVertex
 10
93.87284570466837
 20
10.5316631542982
 30
0.0
  0
VERTEX
  5
18B8
330
18A3
100
AcDbEntity
  8
0
 62
     7
370
     0
100
AcDbVertex
100
AcDb2dVertex
 10
93.87611854538018
 20
10.59022977756209
 30
0.0
  0
VERTEX
  5
18B9
330
18A3
100
AcDbEntity
  8
0
 62
     7
370
     0
100
AcDbVertex
100
AcDb2dVertex
 10
93.87715207402601
 20
10.65017443902042
 30
0.0
  0
VERTEX
  5
18BA
330
18A3
100
AcDbEntity
  8
0
 62
     7
370
     0
100
AcDbVertex
100
AcDb2dVertex
 10
93.87491276196003
 20
10.7087410622843
 30
0.0
  0
SEQEND
  5
18BB
330
18A3
100
AcDbEntity
  8
0
 62
     7
370
     0
  0
POLYLINE
  5
18BC
330
156B
100
AcDbEntity
  8
0
 62
     7
370
     0
100
AcDb2dPolyline
 66
     1
 10
0.0
 20
0.0
 30
0.0
  0
VERTEX
  5
18BD
330
18BC
100
AcDbEntity
  8
0
 62
     7
370
     0
100
AcDbVertex
100
AcDb2dVertex
 10
87.44998193513712
 20
22.2332744824232
 30
0.0
  0
VERTEX
  5
18BE
330
18BC
100
AcDbEntity
  8
0
 62
     7
370
     0
100
AcDbVertex
100
AcDb2dVertex
 10
91.68555458053644
 20
19.71938830620792
 30
0.0
  0
VERTEX
  5
18BF
330
18BC
100
AcDbEntity
  8
0
 62
     7
370
     0
100
AcDbVertex
100
AcDb2dVertex
 10
91.68555458053644
 20
21.37441217773571
 30
0.0
  0
VERTEX
  5
18C0
330
18BC
100
AcDbEntity
  8
0
 62
     7
370
     0
100
AcDbVertex
100
AcDb2dVertex
 10
84.95642182228989
 20
25.33799453450652
 30
0.0
  0
SEQEND
  5
18C1
330
18BC
100
AcDbEntity
  8
0
 62
     7
370
     0
  0
LINE
  5
18C2
330
156B
100
AcDbEntity
  8
0
 62
     7
370
     0
100
AcDbLine
 10
84.95642182228989
 20
25.33799453450652
 30
0.0
 11
92.20834782055378
 21
27.90769125759681
 31
0.0
  0
LINE
  5
18C3
330
156B
100
AcDbEntity
  8
0
  6
AI9-LType1
 62
     7
370
     0
100
AcDbLine
 10
91.90896902281073
 20
26.29400853190237
 30
0.0
 11
91.90896902281073
 21
24.13117758572182
 31
0.0
  0
SPLINE
  5
18C4
330
156B
100
AcDbEntity
  8
0
 62
     7
370
     0
100
AcDbSpline
210
0.0
220
0.0
230
1.0
 70
     8
 71
     3
 72
    17
 73
    13
 74
     0
 42
0.0000000001
 43
0.0000000001
 40
0.0
 40
0.0
 40
0.0
 40
0.0
 40
1.0
 40
1.0
 40
1.0
 40
2.0
 40
2.0
 40
2.0
 40
3.0
 40
3.0
 40
3.0
 40
4.0
 40
4.0
 40
4.0
 40
4.0
 10
171.9647198908662
 20
36.98276178711069
 30
0.0
 10
171.9647198908662
 20
36.98276178711069
 30
0.0
 10
171.9647198908662
 20
36.34335206488848
 30
0.0
 10
171.9647198908662
 20
36.34335206488848
 30
0.0
 10
171.9647198908662
 20
36.34335206488848
 30
0.0
 10
164.7344979941649
 20
33.77365534179819
 30
0.0
 10
164.7344979941649
 20
33.77365534179819
 30
0.0
 10
164.7344979941649
 20
33.77365534179819
 30
0.0
 10
164.7344979941649
 20
56.69456462999264
 30
0.0
 10
164.7344979941649
 20
56.69456462999264
 30
0.0
 10
164.7758391399982
 20
57.7913107779961
 30
0.0
 10
165.6367685019774
 20
57.70776721245792
 30
0.0
 10
166.0880760106579
 20
57.43577692382945
 30
0.0
  0
SPLINE
  5
18C5
330
156B
100
AcDbEntity
  8
0
 62
     7
370
     0
100
AcDbSpline
210
0.0
220
0.0
230
1.0
 70
     8
 71
     3
 72
    17
 73
    13
 74
     0
 42
0.0000000001
 43
0.0000000001
 40
0.0
 40
0.0
 40
0.0
 40
0.0
 40
1.0
 40
1.0
 40
1.0
 40
2.0
 40
2.0
 40
2.0
 40
3.0
 40
3.0
 40
3.0
 40
4.0
 40
4.0
 40
4.0
 40
4.0
 10
167.4568124472899
 20
42.32197077148569
 30
0.0
 10
167.4568124472899
 20
42.32197077148569
 30
0.0
 10
167.4568124472899
 20
46.84641467339543
 30
0.0
 10
167.4568124472899
 20
46.84641467339543
 30
0.0
 10
167.4437210844426
 20
47.63499703016626
 30
0.0
 10
167.7427553726371
 20
48.02842693468014
 30
0.0
 10
168.2505624472899
 20
48.21273954318707
 30
0.0
 10
169.0591263578802
 20
48.40359783311763
 30
0.0
 10
169.2455060236788
 20
47.72146892686762
 30
0.0
 10
169.2368932849635
 20
47.5281990700968
 30
0.0
 10
169.2368932849635
 20
47.5281990700968
 30
0.0
 10
169.2396493613524
 20
43.10194038954125
 30
0.0
 10
169.2396493613524
 20
43.10194038954125
 30
0.0
  0
SPLINE
  5
18C6
330
156B
100
AcDbEntity
  8
0
 62
     7
370
     0
100
AcDbSpline
210
0.0
220
0.0
230
1.0
 70
    11
 71
     3
 72
    20
 73
    16
 74
     0
 42
0.0000000001
 43
0.0000000001
 40
0.0
 40
0.0
 40
0.0
 40
0.0
 40
1.0
 40
1.0
 40
1.0
 40
2.0
 40
2.0
 40
2.0
 40
3.0
 40
3.0
 40
3.0
 40
4.0
 40
4.0
 40
4.0
 40
5.0
 40
5.0
 40
5.0
 40
5.0
 10
169.4601354724635
 20
59.84114259223222
 30
0.0
 10
169.4763274212482
 20
59.42997044596487
 30
0.0
 10
170.1705141616996
 20
59.33264649848223
 30
0.0
 10
170.5274260540607
 20
59.31852160698918
 30
0.0
 10
170.9539288752413
 20
59.31335396375999
 30
0.0
 10
171.6729203031926
 20
59.39965360568709
 30
0.0
 10
171.7466453465954
 20
59.77585803277043
 30
0.0
 10
171.7466453465954
 20
60.29985705620791
 30
0.0
 10
170.8853714750676
 20
60.34739937391626
 30
0.0
 10
170.5274260540607
 20
60.34205947591278
 30
0.0
 10
170.1774043526718
 20
60.33878663520096
 30
0.0
 10
169.5407507068385
 20
60.30175185872528
 30
0.0
 10
169.4601354724635
 20
59.84114259223222
 30
0.0
 10
169.4601354724635
 20
59.84114259223222
 30
0.0
 10
169.4601354724635
 20
59.84114259223222
 30
0.0
 10
169.4601354724635
 20
59.84114259223222
 30
0.0
  0
SPLINE
  5
18C7
330
156B
100
AcDbEntity
  8
0
 62
     7
370
     0
100
AcDbSpline
210
0.0
220
0.0
230
1.0
 70
     8
 71
     3
 72
    11
 73
     7
 74
     0
 42
0.0000000001
 43
0.0000000001
 40
0.0
 40
0.0
 40
0.0
 40
0.0
 40
1.0
 40
1.0
 40
1.0
 40
2.0
 40
2.0
 40
2.0
 40
2.0
 10
106.3952510323593
 20
57.43577692382945
 30
0.0
 10
105.313835559269
 20
58.05348254448915
 30
0.0
 10
104.0698115792343
 20
58.15649089952387
 30
0.0
 10
102.8471471912135
 20
58.15649089952387
 30
0.0
 10
101.7717606352239
 20
58.05882244249264
 30
0.0
 10
100.9780106352239
 20
57.91877931098222
 30
0.0
 10
99.99443587393921
 20
57.4595480826836
 30
0.0
  0
SPLINE
  5
18C8
330
156B
100
AcDbEntity
  8
0
 62
     7
370
     0
100
AcDbSpline
210
0.0
220
0.0
230
1.0
 70
     8
 71
     3
 72
    11
 73
     7
 74
     0
 42
0.0000000001
 43
0.0000000001
 40
0.0
 40
0.0
 40
0.0
 40
0.0
 40
1.0
 40
1.0
 40
1.0
 40
2.0
 40
2.0
 40
2.0
 40
2.0
 10
118.0334726035399
 20
61.52476075629471
 30
0.0
 10
116.9462004681232
 20
62.14539470811764
 30
0.0
 10
115.6818504247204
 20
62.25064237521832
 30
0.0
 10
114.454362903019
 20
62.25064237521832
 30
0.0
 10
113.4039532893038
 20
62.15073460612112
 30
0.0
 10
112.5774748821857
 20
62.03067302843013
 30
0.0
 10
111.6235279420815
 20
61.55387181315237
 30
0.0
  0
SPLINE
  5
18C9
330
156B
100
AcDbEntity
  8
0
 62
     7
370
     0
100
AcDbSpline
210
0.0
220
0.0
230
1.0
 70
     8
 71
     3
 72
    11
 73
     7
 74
     0
 42
0.0000000001
 43
0.0000000001
 40
0.0
 40
0.0
 40
0.0
 40
0.0
 40
1.0
 40
1.0
 40
1.0
 40
2.0
 40
2.0
 40
2.0
 40
2.0
 10
129.6320755766301
 20
65.64164986219751
 30
0.0
 10
128.624040637394
 20
66.17770671983638
 30
0.0
 10
127.6480450861788
 20
66.31292671766624
 30
0.0
 10
126.5190872953802
 20
66.36649795247527
 30
0.0
 10
125.3043466269774
 20
66.36649795247527
 30
0.0
 10
124.3083695219426
 20
66.18270210829123
 30
0.0
 10
123.2090395523246
 20
65.66972739040929
 30
0.0
  0
SPLINE
  5
18CA
330
156B
100
AcDbEntity
  8
0
 62
     7
370
     0
100
AcDbSpline
210
0.0
220
0.0
230
1.0
 70
     8
 71
     3
 72
    11
 73
     7
 74
     0
 42
0.0000000001
 43
0.0000000001
 40
0.0
 40
0.0
 40
0.0
 40
0.0
 40
1.0
 40
1.0
 40
1.0
 40
2.0
 40
2.0
 40
2.0
 40
2.0
 10
98.93903087176907
 20
23.30022055447181
 30
0.0
 10
99.35106429190796
 20
23.61682482964543
 30
0.0
 10
99.70659814607463
 20
23.97855985568708
 30
0.0
 10
99.96859765779337
 20
24.38887072808292
 30
0.0
 10
99.96859765779337
 20
24.38887072808292
 30
0.0
 10
100.8457189685572
 20
26.19513429145097
 30
0.0
 10
100.8457189685572
 20
26.19513429145097
 30
0.0
  0
SPLINE
  5
18CB
330
156B
100
AcDbEntity
  8
0
 62
     7
370
     0
100
AcDbSpline
210
0.0
220
0.0
230
1.0
 70
     8
 71
     3
 72
    14
 73
    10
 74
     0
 42
0.0000000001
 43
0.0000000001
 40
0.0
 40
0.0
 40
0.0
 40
0.0
 40
1.0
 40
1.0
 40
1.0
 40
2.0
 40
2.0
 40
2.0
 40
3.0
 40
3.0
 40
3.0
 40
3.0
 10
172.5324716269773
 20
38.45829618381208
 30
0.0
 10
172.5324716269773
 20
38.45829618381208
 30
0.0
 10
176.0023718005885
 20
39.68785076280514
 30
0.0
 10
176.0023718005885
 20
39.68785076280514
 30
0.0
 10
176.8977521174288
 20
39.9996319042982
 30
0.0
 10
177.3025508370468
 20
40.64248672200652
 30
0.0
 10
177.3959129247204
 20
41.35217639214542
 30
0.0
 10
177.3959129247204
 20
41.35217639214542
 30
0.0
 10
179.2214690228107
 20
55.59540691514889
 30
0.0
 10
179.2214690228107
 20
55.59540691514889
 30
0.0
  0
SPLINE
  5
18CC
330
156B
100
AcDbEntity
  8
0
 62
     7
370
     0
100
AcDbSpline
210
0.0
220
0.0
230
1.0
 70
    11
 71
     3
 72
    32
 73
    28
 74
     0
 42
0.0000000001
 43
0.0000000001
 40
0.0
 40
0.0
 40
0.0
 40
0.0
 40
1.0
 40
1.0
 40
1.0
 40
2.0
 40
2.0
 40
2.0
 40
3.0
 40
3.0
 40
3.0
 40
4.0
 40
4.0
 40
4.0
 40
5.0
 40
5.0
 40
5.0
 40
6.0
 40
6.0
 40
6.0
 40
7.0
 40
7.0
 40
7.0
 40
8.0
 40
8.0
 40
8.0
 40
9.0
 40
9.0
 40
9.0
 40
9.0
 10
99.07976302237671
 20
58.61382732530512
 30
0.0
 10
99.14883718687324
 20
57.92187989691973
 30
0.0
 10
99.74122135571004
 20
57.55601075629471
 30
0.0
 10
100.3210309260225
 20
57.28539850586068
 30
0.0
 10
101.1709359824461
 20
56.93554905924611
 30
0.0
 10
101.9372974733316
 20
56.8454598122843
 30
0.0
 10
102.8471471912135
 20
56.76277752061764
 30
0.0
 10
103.7797345393038
 20
56.76277752061764
 30
0.0
 10
104.5955331504149
 20
56.86578587565236
 30
0.0
 10
105.5040048301024
 20
57.06766847113846
 30
0.0
 10
106.2815628813176
 20
57.32673965169403
 30
0.0
 10
107.0370723214218
 20
57.68175674153778
 30
0.0
 10
107.3116464316649
 20
58.50496230794402
 30
0.0
 10
107.3116464316649
 20
59.26632841037457
 30
0.0
 10
106.7921260323593
 20
59.53900771810026
 30
0.0
 10
106.2009476469427
 20
59.87697158528778
 30
0.0
 10
105.2910979290607
 20
60.33189644422876
 30
0.0
 10
104.307523167776
 20
60.43886665907248
 30
0.0
 10
103.304655871769
 20
60.48675348632944
 30
0.0
 10
102.5245139989392
 20
60.48675348632944
 30
0.0
 10
101.8218867745468
 20
60.38546767903778
 30
0.0
 10
101.0615542007621
 20
60.2252707389336
 30
0.0
 10
100.2590192072725
 20
59.94225614474959
 30
0.0
 10
99.1784650080538
 20
59.60136394639889
 30
0.0
 10
99.07976302237671
 20
58.61382732530512
 30
0.0
 10
99.07976302237671
 20
58.61382732530512
 30
0.0
 10
99.07976302237671
 20
58.61382732530512
 30
0.0
 10
99.07976302237671
 20
58.61382732530512
 30
0.0
  0
SPLINE
  5
18CD
330
156B
100
AcDbEntity
  8
0
 62
     7
370
     0
100
AcDbSpline
210
0.0
220
0.0
230
1.0
 70
    11
 71
     3
 72
    32
 73
    28
 74
     0
 42
0.0000000001
 43
0.0000000001
 40
0.0
 40
0.0
 40
0.0
 40
0.0
 40
1.0
 40
1.0
 40
1.0
 40
2.0
 40
2.0
 40
2.0
 40
3.0
 40
3.0
 40
3.0
 40
4.0
 40
4.0
 40
4.0
 40
5.0
 40
5.0
 40
5.0
 40
6.0
 40
6.0
 40
6.0
 40
7.0
 40
7.0
 40
7.0
 40
8.0
 40
8.0
 40
8.0
 40
9.0
 40
9.0
 40
9.0
 40
9.0
 10
122.2943667007621
 20
66.80213027669402
 30
0.0
 10
122.3646466486788
 20
66.09726374023569
 30
0.0
 10
122.9434226903454
 20
65.74999811523568
 30
0.0
 10
123.5356346044079
 20
65.47370145724958
 30
0.0
 10
124.4664994047552
 20
65.06649117079124
 30
0.0
 10
125.5072627511093
 20
64.95108047200654
 30
0.0
 10
126.5190872953802
 20
64.95108047200654
 30
0.0
 10
127.4341046564913
 20
64.99466092990582
 30
0.0
 10
128.2392234715954
 20
65.09611899197179
 30
0.0
 10
129.1108326295815
 20
65.38654054145098
 30
0.0
 10
129.7619556764565
 20
65.71210206488848
 30
0.0
 10
130.526077855276
 20
66.08021051757944
 30
0.0
 10
130.526077855276
 20
66.91099529405514
 30
0.0
 10
130.2993905722899
 20
67.66702149848223
 30
0.0
 10
129.7750470393038
 20
67.88544055230167
 30
0.0
 10
129.1108326295815
 20
68.21754775716278
 30
0.0
 10
128.2281991660399
 20
68.51175891167668
 30
0.0
 10
127.4471960193385
 20
68.63078696072179
 30
0.0
 10
126.5190872953802
 20
68.67488418294403
 30
0.0
 10
125.6171612971163
 20
68.67488418294403
 30
0.0
 10
124.7410735149982
 20
68.5684307324232
 30
0.0
 10
123.8839337580538
 20
68.28300457139889
 30
0.0
 10
123.167009387394
 20
67.96915637261418
 30
0.0
 10
122.3829056547552
 20
67.68751981662458
 30
0.0
 10
122.2943667007621
 20
66.80213027669402
 30
0.0
 10
122.2943667007621
 20
66.80213027669402
 30
0.0
 10
122.2943667007621
 20
66.80213027669402
 30
0.0
 10
122.2943667007621
 20
66.80213027669402
 30
0.0
  0
SPLINE
  5
18CE
330
156B
100
AcDbEntity
  8
0
 62
     7
370
     0
100
AcDbSpline
210
0.0
220
0.0
230
1.0
 70
    11
 71
     3
 72
    32
 73
    28
 74
     0
 42
0.0000000001
 43
0.0000000001
 40
0.0
 40
0.0
 40
0.0
 40
0.0
 40
1.0
 40
1.0
 40
1.0
 40
2.0
 40
2.0
 40
2.0
 40
3.0
 40
3.0
 40
3.0
 40
4.0
 40
4.0
 40
4.0
 40
5.0
 40
5.0
 40
5.0
 40
6.0
 40
6.0
 40
6.0
 40
7.0
 40
7.0
 40
7.0
 40
8.0
 40
8.0
 40
8.0
 40
9.0
 40
9.0
 40
9.0
 40
9.0
 10
110.6871509889565
 20
62.70797880099957
 30
0.0
 10
110.7553638795815
 20
62.02395509223222
 30
0.0
 10
111.3637677424288
 20
61.66187555664194
 30
0.0
 10
111.9284188926024
 20
61.37954998155513
 30
0.0
 10
112.7776349299288
 20
61.02987278971486
 30
0.0
 10
113.5469247519774
 20
60.94322863823916
 30
0.0
 10
114.454362903019
 20
60.85692899631209
 30
0.0
 10
115.241911731144
 20
60.85692899631209
 30
0.0
 10
115.9636592354843
 20
60.93633844726693
 30
0.0
 10
116.7412172866996
 20
61.05295492947181
 30
0.0
 10
117.6489999472899
 20
61.31994982964542
 30
0.0
 10
118.5929561104843
 20
61.62139568468012
 30
0.0
 10
118.9188621434704
 20
62.59911378363847
 30
0.0
 10
118.9188621434704
 20
63.46176569336069
 30
0.0
 10
118.1878128813177
 20
63.80403592990584
 30
0.0
 10
117.5032724082274
 20
64.12356853624263
 30
0.0
 10
116.6196054160399
 20
64.41812420030513
 30
0.0
 10
115.841702855276
 20
64.53853028754472
 30
0.0
 10
114.9118715835746
 20
64.58073270724958
 30
0.0
 10
114.1429262710746
 20
64.58073270724958
 30
0.0
 10
113.4390932632621
 20
64.48582032660721
 30
0.0
 10
112.6904740141301
 20
64.31959446940235
 30
0.0
 10
111.897757542776
 20
64.05518339084332
 30
0.0
 10
110.7836136625677
 20
63.67467259440235
 30
0.0
 10
110.6871509889565
 20
62.70797880099957
 30
0.0
 10
110.6871509889565
 20
62.70797880099957
 30
0.0
 10
110.6871509889565
 20
62.70797880099957
 30
0.0
 10
110.6871509889565
 20
62.70797880099957
 30
0.0
  0
INSERT
  5
18CF
330
156B
100
AcDbEntity
  8
0
 62
     7
370
     0
100
AcDbBlockReference
  2
AI9-BLK1
 10
171.07950260571
 20
38.32600451714542
 30
0.0
  0
INSERT
  5
18D0
330
156B
100
AcDbEntity
  8
0
 62
     7
370
     0
100
AcDbBlockReference
  2
AI9-BLK2
 10
168.9633527033662
 20
39.6151592480482
 30
0.0
  0
POLYLINE
  5
18D1
330
156B
100
AcDbEntity
  8
0
 62
     7
370
     0
100
AcDb2dPolyline
 66
     1
 10
0.0
 20
0.0
 30
0.0
  0
VERTEX
  5
18D2
330
18D1
100
AcDbEntity
  8
0
 62
     7
370
     0
100
AcDbVertex
100
AcDb2dVertex
 10
166.0956552207274
 20
57.43336535698915
 30
0.0
  0
VERTEX
  5
18D3
330
18D1
100
AcDbEntity
  8
0
 62
     7
370
     0
100
AcDbVertex
100
AcDb2dVertex
 10
170.331400120901
 20
54.91965143554819
 30
0.0
  0
VERTEX
  5
18D4
330
18D1
100
AcDbEntity
  8
0
 62
     7
370
     0
100
AcDbVertex
100
AcDb2dVertex
 10
170.331400120901
 20
56.57467530707598
 30
0.0
  0
VERTEX
  5
18D5
330
18D1
100
AcDbEntity
  8
0
 62
     7
370
     0
100
AcDbVertex
100
AcDb2dVertex
 10
163.6020951078801
 20
60.53808540907249
 30
0.0
  0
SEQEND
  5
18D6
330
18D1
100
AcDbEntity
  8
0
 62
     7
370
     0
  0
LINE
  5
18D7
330
156B
100
AcDbEntity
  8
0
 62
     7
370
     0
100
AcDbLine
 10
163.6020951078801
 20
60.53808540907249
 30
0.0
 11
170.854021106144
 21
63.10778213216278
 31
0.0
  0
POLYLINE
  5
18D8
330
156B
100
AcDbEntity
  8
0
 62
     7
370
     0
100
AcDb2dPolyline
 66
     1
 10
0.0
 20
0.0
 30
0.0
  0
VERTEX
  5
18D9
330
18D8
100
AcDbEntity
  8
0
 62
     7
370
     0
100
AcDbVertex
100
AcDb2dVertex
 10
164.7344979941649
 20
33.77365534179819
 30
0.0
  0
VERTEX
  5
18DA
330
18D8
100
AcDbEntity
  8
0
 62
     7
370
     0
100
AcDbVertex
100
AcDb2dVertex
 10
163.6020951078801
 20
34.42718995551347
 30
0.0
  0
VERTEX
  5
18DB
330
18D8
100
AcDbEntity
  8
0
 62
     7
370
     0
100
AcDbVertex
100
AcDb2dVertex
 10
163.6020951078801
 20
60.51293621202387
 30
0.0
  0
SEQEND
  5
18DC
330
18D8
100
AcDbEntity
  8
0
 62
     7
370
     0
  0
LINE
  5
18DD
330
156B
100
AcDbEntity
  8
0
 62
     7
370
     0
100
AcDbLine
 10
144.013626683401
 20
41.42038928277041
 30
0.0
 11
157.401956761526
 21
33.53284316731903
 31
0.0
  0
LINE
  5
18DE
330
156B
100
AcDbEntity
  8
0
  6
CENTER
 62
     7
370
     0
100
AcDbLine
 10
98.27929508617879
 20
-0.7617043587226249
 30
0.0
 11
102.3079897476371
 21
-3.135719658201793
 31
0.0
  0
LINE
  5
18DF
330
156B
100
AcDbEntity
  8
0
  6
AI9-LType1
 62
     7
370
     0
100
AcDbLine
 10
126.4126338448593
 20
70.99188315212805
 30
0.0
 11
126.4267587363524
 21
64.9560758604614
 31
0.0
  0
LINE
  5
18E0
330
156B
100
AcDbEntity
  8
0
  6
AI9-LType1
 62
     7
370
     0
100
AcDbLine
 10
103.1885561538871
 20
62.80013510525304
 30
0.0
 11
103.2026810453801
 21
56.76450006836069
 31
0.0
  0
LINE
  5
18E1
330
156B
100
AcDbEntity
  8
0
  6
AI9-LType1
 62
     7
370
     0
100
AcDbLine
 10
114.8129973431232
 20
66.96990642686762
 30
0.0
 11
114.8271222346163
 21
60.93427138997526
 31
0.0
  0
LINE
  5
18E2
330
156B
100
AcDbEntity
  8
0
 62
     7
370
     0
100
AcDbLine
 10
171.9647198908662
 20
55.51961481445445
 30
0.0
 11
171.9647198908662
 21
40.25284642252737
 31
0.0
  0
LINE
  5
18E3
330
156B
100
AcDbEntity
  8
0
 62
     7
370
     0
100
AcDbLine
 10
168.1158592137829
 20
48.13177979926348
 30
0.0
 11
168.1189597997204
 21
42.79842747721485
 31
0.0
  0
POLYLINE
  5
18E4
330
156B
100
AcDbEntity
  8
0
 62
     7
370
     0
100
AcDb2dPolyline
 66
     1
 10
0.0
 20
0.0
 30
0.0
  0
VERTEX
  5
18E5
330
18E4
100
AcDbEntity
  8
0
 62
     7
370
     0
100
AcDbVertex
100
AcDb2dVertex
 10
170.854021106144
 20
63.10778213216278
 30
0.0
  0
VERTEX
  5
18E6
330
18E4
100
AcDbEntity
  8
0
 62
     7
370
     0
100
AcDbVertex
100
AcDb2dVertex
 10
177.5833261191649
 20
59.12249567382943
 30
0.0
  0
VERTEX
  5
18E7
330
18E4
100
AcDbEntity
  8
0
 62
     7
370
     0
100
AcDbVertex
100
AcDb2dVertex
 10
177.5833261191649
 20
57.48917590386418
 30
0.0
  0
SEQEND
  5
18E8
330
18E4
100
AcDbEntity
  8
0
 62
     7
370
     0
  0
POLYLINE
  5
18E9
330
156B
100
AcDbEntity
  8
0
 62
     7
370
     0
100
AcDb2dPolyline
 66
     1
 10
0.0
 20
0.0
 30
0.0
  0
VERTEX
  5
18EA
330
18E9
100
AcDbEntity
  8
0
 62
     7
370
     0
100
AcDbVertex
100
AcDb2dVertex
 10
170.331400120901
 20
54.91965143554819
 30
0.0
  0
VERTEX
  5
18EB
330
18E9
100
AcDbEntity
  8
0
 62
     7
370
     0
100
AcDbVertex
100
AcDb2dVertex
 10
177.5833261191649
 20
57.48917590386418
 30
0.0
  0
VERTEX
  5
18EC
330
18E9
100
AcDbEntity
  8
0
 62
     7
370
     0
100
AcDbVertex
100
AcDb2dVertex
 10
177.5833261191649
 20
59.12249567382943
 30
0.0
  0
VERTEX
  5
18ED
330
18E9
100
AcDbEntity
  8
0
 62
     7
370
     0
100
AcDbVertex
100
AcDb2dVertex
 10
170.331400120901
 20
56.57467530707598
 30
0.0
  0
SEQEND
  5
18EE
330
18E9
100
AcDbEntity
  8
0
 62
     7
370
     0
  0
ENDBLK
  5
18F0
330
156B
100
AcDbEntity
  8
0
100
AcDbBlockEnd
  0
BLOCK
  5
1A0D
330
1A02
100
AcDbEntity
  8
0
100
AcDbBlockBegin
  2
*D7
 70
     1
 10
0.0
 20
0.0
 30
0.0
  3
*D7
  1

  0
LINE
  5
1B11
330
1A02
100
AcDbEntity
  8
DIM
 62
     0
370
    -2
100
AcDbLine
 10
2.380419420313586
 20
17.15526792163755
 30
0.0
 11
1.217441811421606
 21
17.15526792163755
 31
0.0
  0
LINE
  5
1B12
330
1A02
100
AcDbEntity
  8
DIM
 62
     0
370
    -2
100
AcDbLine
 10
1.334941811421606
 20
19.15520913435038
 30
0.0
 11
1.217441811421607
 21
19.15520913435038
 31
0.0
  0
LINE
  5
1B13
330
1A02
100
AcDbEntity
  8
DIM
 62
     0
370
    -2
100
AcDbLine
 10
1.397441811421606
 20
17.30526792163755
 30
0.0
 11
1.397441811421606
 21
17.82523852799396
 31
0.0
  0
LINE
  5
1B14
330
1A02
100
AcDbEntity
  8
DIM
 62
     0
370
    -2
100
AcDbLine
 10
1.397441811421606
 20
19.00520913435038
 30
0.0
 11
1.397441811421606
 21
18.48523852799396
 31
0.0
  0
SOLID
  5
1B15
330
1A02
100
AcDbEntity
  8
DIM
 62
     0
100
AcDbTrace
 10
1.372441811421606
 20
17.30526792163755
 30
0.0
 11
1.422441811421606
 21
17.30526792163755
 31
0.0
 12
1.397441811421606
 22
17.15526792163755
 32
0.0
 13
1.397441811421606
 23
17.15526792163755
 33
0.0
  0
SOLID
  5
1B16
330
1A02
100
AcDbEntity
  8
DIM
 62
     0
100
AcDbTrace
 10
1.372441811421607
 20
19.00520913435038
 30
0.0
 11
1.422441811421606
 21
19.00520913435038
 31
0.0
 12
1.397441811421606
 22
19.15520913435038
 32
0.0
 13
1.397441811421606
 23
19.15520913435038
 33
0.0
  0
MTEXT
  5
1B17
330
1A02
100
AcDbEntity
  8
DIM
 62
     0
100
AcDbMText
 10
1.397441811421603
 20
18.15523852799396
 30
0.0
 40
0.18
 41
0.0
 71
     5
 72
     1
  1
\A1;51mm\P(2") minimum
 73
     1
 44
1.0
1001
ACAD
1000
MTEXTBEGIN
1070
    73
1070
     1
1070
    44
1040
1.0
1070
    74
1070
     0
1000
MTEXTEND
  0
POINT
  5
1B18
330
1A02
100
AcDbEntity
  8
DEFPOINTS
 62
     0
100
AcDbPoint
 10
2.442919420313586
 20
17.15526792163755
 30
0.0
  0
POINT
  5
1B19
330
1A02
100
AcDbEntity
  8
DEFPOINTS
 62
     0
100
AcDbPoint
 10
1.397441811421606
 20
19.15520913435038
 30
0.0
  0
POINT
  5
1B1A
330
1A02
100
AcDbEntity
  8
DEFPOINTS
 62
     0
100
AcDbPoint
 10
1.397441811421606
 20
19.15520913435038
 30
0.0
  0
ENDBLK
  5
1A0E
330
1A02
100
AcDbEntity
  8
0
100
AcDbBlockEnd
  0
BLOCK
  5
1B27
330
1B1C
100
AcDbEntity
  8
0
100
AcDbBlockBegin
  2
*D8
 70
     1
 10
0.0
 20
0.0
 30
0.0
  3
*D8
  1

  0
LINE
  5
1B85
330
1B1C
100
AcDbEntity
  8
DIM
 62
     0
370
    -2
100
AcDbLine
 10
2.317919420313586
 20
17.15526792163755
 30
0.0
 11
1.223472088468223
 21
17.15526792163755
 31
0.0
  0
LINE
  5
1B86
330
1B1C
100
AcDbEntity
  8
DIM
 62
     0
370
    -2
100
AcDbLine
 10
2.454957301105828
 20
6.405267921637548
 30
0.0
 11
1.22347208846822
 21
6.405267921637549
 31
0.0
  0
LINE
  5
1B87
330
1B1C
100
AcDbEntity
  8
DIM
 62
     0
370
    -2
100
AcDbLine
 10
1.403472088468223
 20
17.00526792163755
 30
0.0
 11
1.403472088468222
 21
12.11026792163755
 31
0.0
  0
LINE
  5
1B88
330
1B1C
100
AcDbEntity
  8
DIM
 62
     0
370
    -2
100
AcDbLine
 10
1.403472088468221
 20
6.55526792163755
 30
0.0
 11
1.403472088468221
 21
11.45026792163755
 31
0.0
  0
SOLID
  5
1B89
330
1B1C
100
AcDbEntity
  8
DIM
 62
     0
100
AcDbTrace
 10
1.378472088468223
 20
17.00526792163755
 30
0.0
 11
1.428472088468223
 21
17.00526792163755
 31
0.0
 12
1.403472088468223
 22
17.15526792163755
 32
0.0
 13
1.403472088468223
 23
17.15526792163755
 33
0.0
  0
SOLID
  5
1B8A
330
1B1C
100
AcDbEntity
  8
DIM
 62
     0
100
AcDbTrace
 10
1.378472088468221
 20
6.55526792163755
 30
0.0
 11
1.42847208846822
 21
6.55526792163755
 31
0.0
 12
1.40347208846822
 22
6.405267921637549
 32
0.0
 13
1.40347208846822
 23
6.405267921637549
 33
0.0
  0
MTEXT
  5
1B8B
330
1B1C
100
AcDbEntity
  8
DIM
 62
     0
100
AcDbMText
 10
1.40347208846822
 20
11.78026792163755
 30
0.0
 40
0.18
 41
0.0
 71
     5
 72
     1
  1
\A1;273mm\P(10 3/4")
 73
     1
 44
1.0
1001
ACAD
1000
MTEXTBEGIN
1070
    73
1070
     1
1070
    44
1040
1.0
1070
    74
1070
     0
1000
MTEXTEND
  0
POINT
  5
1B8C
330
1B1C
100
AcDbEntity
  8
DEFPOINTS
 62
     0
100
AcDbPoint
 10
2.380419420313586
 20
17.15526792163755
 30
0.0
  0
POINT
  5
1B8D
330
1B1C
100
AcDbEntity
  8
DEFPOINTS
 62
     0
100
AcDbPoint
 10
2.517457301105828
 20
6.405267921637548
 30
0.0
  0
POINT
  5
1B8E
330
1B1C
100
AcDbEntity
  8
DEFPOINTS
 62
     0
100
AcDbPoint
 10
1.40347208846822
 20
6.405267921637549
 30
0.0
  0
ENDBLK
  5
1B28
330
1B1C
100
AcDbEntity
  8
0
100
AcDbBlockEnd
  0
BLOCK
  5
1C9F
330
1C9E
100
AcDbEntity
  8
0
100
AcDbBlockBegin
  2
*D9
 70
     1
 10
0.0
 20
0.0
 30
0.0
  3
*D9
  1

  0
LINE
  5
1D20
330
1C9E
100
AcDbEntity
  8
0
 62
     0
370
    -2
100
AcDbLine
 10
18.9029752549831
 20
20.22528438638666
 30
0.0
 11
18.9029752549831
 21
20.62167580044432
 31
0.0
  0
LINE
  5
1D21
330
1C9E
100
AcDbEntity
  8
0
 62
     0
370
    -2
100
AcDbLine
 10
30.90297525498311
 20
20.22528438638666
 30
0.0
 11
30.90297525498311
 21
20.62167580044432
 31
0.0
  0
LINE
  5
1D22
330
1C9E
100
AcDbEntity
  8
0
 62
     0
370
    -2
100
AcDbLine
 10
19.1529752549831
 20
20.44167580044432
 30
0.0
 11
24.64630858831644
 21
20.44167580044432
 31
0.0
  0
LINE
  5
1D23
330
1C9E
100
AcDbEntity
  8
0
 62
     0
370
    -2
100
AcDbLine
 10
30.65297525498311
 20
20.44167580044432
 30
0.0
 11
25.15964192164978
 21
20.44167580044432
 31
0.0
  0
SOLID
  5
1D24
330
1C9E
100
AcDbEntity
  8
0
 62
     0
100
AcDbTrace
 10
19.1529752549831
 20
20.48334246711099
 30
0.0
 11
19.1529752549831
 21
20.40000913377765
 31
0.0
 12
18.9029752549831
 22
20.44167580044432
 32
0.0
 13
18.9029752549831
 23
20.44167580044432
 33
0.0
  0
SOLID
  5
1D25
330
1C9E
100
AcDbEntity
  8
0
 62
     0
100
AcDbTrace
 10
30.65297525498311
 20
20.48334246711099
 30
0.0
 11
30.65297525498311
 21
20.40000913377765
 31
0.0
 12
30.90297525498311
 22
20.44167580044432
 32
0.0
 13
30.90297525498311
 23
20.44167580044432
 33
0.0
  0
MTEXT
  5
1D26
330
1C9E
100
AcDbEntity
  8
0
 62
     0
100
AcDbMText
 10
24.90297525498311
 20
20.44167580044432
 30
0.0
 40
0.25
 41
0.0
 71
     5
 72
     1
  1
\A1;12
 73
     1
 44
1.0
1001
ACAD
1000
MTEXTBEGIN
1070
    73
1070
     1
1070
    44
1040
1.0
1070
    74
1070
     0
1000
MTEXTEND
  0
POINT
  5
1D27
330
1C9E
100
AcDbEntity
  8
DEFPOINTS
 62
     0
100
AcDbPoint
 10
18.9029752549831
 20
20.16278438638666
 30
0.0
  0
POINT
  5
1D28
330
1C9E
100
AcDbEntity
  8
DEFPOINTS
 62
     0
100
AcDbPoint
 10
30.90297525498311
 20
20.16278438638666
 30
0.0
  0
POINT
  5
1D29
330
1C9E
100
AcDbEntity
  8
DEFPOINTS
 62
     0
100
AcDbPoint
 10
30.90297525498311
 20
20.44167580044432
 30
0.0
  0
ENDBLK
  5
1CA0
330
1C9E
100
AcDbEntity
  8
0
100
AcDbBlockEnd
  0
BLOCK
  5
1CDA
330
1CD6
100
AcDbEntity
  8
0
100
AcDbBlockBegin
  2
Full Scale Note
 70
     0
 10
0.0
 20
0.0
 30
0.0
  3
Full Scale Note
  1

  0
MTEXT
  5
1CD7
330
1CD6
100
AcDbEntity
  8
0
100
AcDbMText
 10
0.2597905740913617
 20
-0.0059087464970027
 30
0.0
 40
0.12
 41
11.39473342052524
 71
     5
 72
     5
  1
{\fArial|b0|i0|c0|p34;WHEN PRINTED FULL SCALE, THIS MARK SHOULD MEASURE 12" AS NOTED\PAMERICAN STANDARD IS NOT RESPONSIBLE FOR INCORRECT COUNTERTOP CUTOUT\PIF THIS TEMPLATE IS NOT PLOTTED TO FULL SCALE}
 73
     1
 44
1.0
1001
ACAD
1000
MTEXTBEGIN
1070
    73
1070
     1
1070
    44
1040
1.0
1070
    74
1070
     0
1000
MTEXTEND
  0
ENDBLK
  5
1CDB
330
1CD6
100
AcDbEntity
  8
0
100
AcDbBlockEnd
  0
ENDSEC
  0
SECTION
  2
ENTITIES
  0
TEXT
  5
BC
330
1E
100
AcDbEntity
  8
0
 62
     6
100
AcDbText
 10
28.74932391577856
 20
0.2561036198991331
 30
0.0
 40
0.125
  1
FULL
100
AcDbText
  0
TEXT
  5
100
330
1E
100
AcDbEntity
  8
0
100
AcDbText
 10
26.34676189279194
 20
2.122502282223384
 30
0.0
 40
0.2
  1
Mezzo 9960 Template
100
AcDbText
  0
TEXT
  5
102
330
1E
100
AcDbEntity
  8
0
100
AcDbText
 10
28.80891869590031
 20
0.5123638542346967
 30
0.0
 40
0.1
  1
8/29/02
 41
0.5
100
AcDbText
  0
TEXT
  5
105
330
1E
100
AcDbEntity
  8
0
100
AcDbText
 10
29.46949727015983
 20
0.302345744535377
 30
0.0
 40
0.15
  1
730530-400
100
AcDbText
  0
LINE
  5
161
330
1E
100
AcDbEntity
  8
0
100
AcDbLine
 10
2.517457301105829
 20
6.405267921637548
 30
0.0
 11
2.358947748941813
 21
17.03026792163755
 31
0.0
  0
LINE
  5
162
330
1E
100
AcDbEntity
  8
0
100
AcDbLine
 10
22.43272597596281
 20
6.40526792163752
 30
0.0
 11
22.52265187767871
 21
17.03026792163754
 31
0.0
  0
ARC
  5
163
330
1E
100
AcDbEntity
  8
0
100
AcDbCircle
 10
13.22660312678494
 20
11.89236725234746
 30
0.0
 40
10.71732041973329
100
AcDbArc
 50
283.3215292204295
 51
329.2039092895225
  0
LINE
  5
164
330
1E
100
AcDbEntity
  8
0
  6
HIDDEN
 48
15.0
100
AcDbLine
 10
22.43272597596281
 20
6.405267921637518
 30
0.0
 11
2.51745730110583
 21
6.405267921637546
 31
0.0
  0
ARC
  5
165
102
{ACAD_REACTORS
330
1B34
102
}
330
1E
100
AcDbEntity
  8
0
100
AcDbCircle
 10
11.73569165185082
 20
11.91108220733885
 30
0.0
 40
10.73731044041698
100
AcDbArc
 50
210.8487858974954
 51
256.6614092866976
  0
ARC
  5
166
330
1E
100
AcDbEntity
  8
0
100
AcDbCircle
 10
12.47728878244062
 20
19.95019152156048
 30
0.0
 40
18.76488481712619
100
AcDbArc
 50
260.1231827440514
 51
279.8768172559486
  0
LINE
  5
167
330
1E
100
AcDbEntity
  8
0
100
AcDbLine
 10
22.32265187767871
 20
17.15526792163754
 30
0.0
 11
2.558947748941813
 21
17.15526792163755
 31
0.0
  0
CIRCLE
  5
282
330
1E
100
AcDbEntity
  8
0
  6
HIDDEN
 48
15.0
100
AcDbCircle
 10
4.94079981331026
 20
17.96768968837252
 30
0.0
 40
0.1565
  0
LINE
  5
339
330
1E
100
AcDbEntity
  8
0
  6
CENTER
 48
15.0
100
AcDbLine
 10
12.44079981331026
 20
18.65274262387586
 30
0.0
 11
12.44079981331026
 21
17.67318841595749
 31
0.0
  0
LEADER
  5
3F3
330
1E
100
AcDbEntity
  8
DIM
100
AcDbLeader
  3
Standard
 73
     0
 40
0.2816666666666667
 41
1.17
 76
     3
 10
15.93040188162558
 20
4.633001665658014
 30
0.0
 10
16.60214099312281
 20
5.091897239988895
 30
0.0
 10
16.83710272528537
 20
5.091667668881314
 30
0.0
340
3F4
213
-0.0240943815366166
223
-0.1132873014709569
233
0.0
  0
MTEXT
  5
3F4
102
{ACAD_REACTORS
330
3F3
102
}
330
1E
100
AcDbEntity
  8
DIM
100
AcDbMText
 10
16.95119710682199
 20
5.204954970352271
 30
0.0
 40
0.065
 41
0.0
 71
     1
 72
     1
  1
WATERPROOF SEALANT\PSCELLANT ÈTANCHE\PPEGA IMPERMEABLE
 73
     1
 44
1.0
1001
ACAD
1000
MTEXTBEGIN
1070
    73
1070
     1
1070
    44
1040
1.0
1070
    74
1070
     0
1000
MTEXTEND
  0
LEADER
  5
3F5
330
1E
100
AcDbEntity
  8
DIM
100
AcDbLeader
  3
Standard
 40
0.3191
 41
2.775000000000001
 76
     3
 10
12.74555253858288
 20
3.123844813615569
 30
0.0
 10
12.28181269952716
 20
2.945264181539208
 30
0.0
 10
12.15331152112109
 20
2.947202399784004
 30
0.0
213
2.170266941587982
223
0.0330591423419373
233
0.0
  0
LEADER
  5
3F7
330
1E
100
AcDbEntity
  8
DIM
100
AcDbLeader
  3
Standard
 73
     0
 40
0.2816666666666667
 41
0.585
 76
     3
 10
14.84568411400919
 20
5.599008695733047
 30
0.0
 10
15.05168584217571
 20
5.927424163345811
 30
0.0
 10
15.23162496208283
 20
5.927424163345811
 30
0.0
340
3F8
213
0.0309569609313982
223
-0.1487967202767894
233
0.0
  0
MTEXT
  5
3F8
102
{ACAD_REACTORS
330
3F7
102
}
330
1E
100
AcDbEntity
  8
DIM
100
AcDbMText
 10
15.29066800115143
 20
6.076220883622601
 30
0.0
 40
0.065
 41
0.0
 71
     1
 72
     1
  1
BASIN\PLAVABO\PLAVAMANOS
 73
     1
 44
1.0
1001
ACAD
1000
MTEXTBEGIN
1070
    73
1070
     1
1070
    44
1040
1.0
1070
    74
1070
     0
1000
MTEXTEND
  0
LEADER
  5
3F9
330
1E
100
AcDbEntity
  8
DIM
100
AcDbLeader
  3
Standard
 73
     0
 40
1.148333333333333
 41
3.629166666666667
 76
     3
 10
13.76120556178273
 20
3.291404137483311
 30
0.0
 10
14.49344204357419
 20
3.352159207240646
 30
0.0
 10
14.59380247268086
 20
3.352159207240646
 30
0.0
340
3FA
213
-0.0337109692178856
223
-0.2576333013699142
233
0.0
  0
MTEXT
  5
3FA
102
{ACAD_REACTORS
330
3F9
102
}
330
1E
100
AcDbEntity
  8
DIM
100
AcDbMText
 10
14.71751344189875
 20
3.60979250861056
 30
0.0
 40
0.065
 41
0.0
 71
     1
 72
     1
  3
#10 SCREW (4) (NOT SUPPLIED) \P(VARY LENGTH ACCORDING TO COUNTERTOP WIDTH)\P(USE BRASS INSERTS FOR SOLID SURFACES-NOT SUPPLIED)\P\PVIS No 10 (4) (NON COMPRISES)\P(LA LONGUEUR VARIERA SELON LA LARGEUR DU COMPTOIR)\P(POUR LES SURFACES SOLIDES, UTILISER
  1
 DES INSERTS EN LAITON)\P\PTORNILLO No. 10 (4) (NO SUMINISTRADO)\P(LA LONGITUD VARIA DE ACUERDO AL GRUESO DE LA CUBIERTA)\P(USE REFUERZOS DE COBRE EN SUPERFICIES SOLIDAS)
 73
     1
 44
1.0
1001
ACAD
1000
MTEXTBEGIN
1070
    73
1070
     1
1070
    44
1040
1.0
1070
    74
1070
     0
1000
MTEXTEND
  0
MTEXT
  5
443
102
{ACAD_REACTORS
330
444
102
}
330
1E
100
AcDbEntity
  8
DIM
100
AcDbMText
 10
17.1050474589177
 20
4.523612175637032
 30
0.0
 40
0.065
 41
0.0
 71
     1
 72
     1
  1
COUNTERTOP/COMPTOIR/CUBIERTA\P(1/2" MIN. / 1 1/2" MAX.)\PBY OTHERS/
 73
     1
 44
1.0
1001
ACAD
1000
MTEXTBEGIN
1070
    73
1070
     1
1070
    44
1040
1.0
1070
    74
1070
     0
1000
MTEXTEND
  0
LEADER
  5
444
330
1E
100
AcDbEntity
  8
DIM
100
AcDbLeader
  3
Standard
 73
     0
 40
0.2816666666666667
 41
1.754999999999999
 76
     3
 10
16.37581018241474
 20
4.534128977748196
 30
0.0
 10
16.8133833385832
 20
4.473829809721905
 30
0.0
 10
16.97935964963505
 20
4.473829809721905
 30
0.0
340
443
213
-0.0356878092826497
223
-0.0497823659151273
233
0.0
1001
ACAD
1000
DSTYLE
1002
{
1070
   147
1040
0.09
1070
    77
1070
     0
1002
}
  0
MTEXT
  5
445
102
{ACAD_REACTORS
330
446
102
}
330
1E
100
AcDbEntity
  8
DIM
100
AcDbMText
 10
13.7626743356521
 20
1.872714391159306
 30
0.0
 40
0.065
 41
0.0
 71
     6
 72
     1
  1
MOUNTING BRACKET (2)\PATTACHE DE MONTAGE (2)\PSUJETADORES (2)
 73
     1
 44
1.0
1001
ACAD
1000
MTEXTBEGIN
1070
    73
1070
     1
1070
    44
1040
1.0
1070
    74
1070
     0
1000
MTEXTEND
  0
LEADER
  5
446
330
1E
100
AcDbEntity
  8
DIM
100
AcDbLeader
  3
Standard
 73
     0
 40
0.2816666666666667
 41
1.364999999999999
 76
     3
 10
13.62347868966594
 20
2.935937836931088
 30
0.0
 10
13.95078511321289
 20
1.922500820841037
 30
0.0
 10
13.82322412637867
 20
1.9228692025263
 30
0.0
340
445
213
-0.0294502092734312
223
0.0501548113669941
233
0.0
  0
LWPOLYLINE
  5
4D8
330
1E
100
AcDbEntity
  8
0
100
AcDbPolyline
 90
       10
 70
     1
 43
0.0
 10
7.258733093638235
 20
4.311584271183239
 10
7.799889139975843
 20
3.999147682892369
 10
8.910566719127642
 20
4.640397682198543
 10
6.67510658535732
 20
5.931041192193513
 10
5.564429003573438
 20
5.289791191367706
 10
5.813810683467163
 20
5.145810611689157
 10
6.627012835520448
 20
5.615313093043519
 42
-0.267949192624005
 10
6.723200335581522
 20
5.615313093006907
 10
8.071935244153207
 20
4.836620629133895
 42
-0.5773502694481547
 10
8.071935244083229
 20
4.781086750103785
  0
ARC
  5
4D9
330
1E
100
AcDbEntity
  8
0
100
AcDbCircle
 10
6.734742643785571
 20
5.14365826503998
 30
0.0
 40
0.9209344754823812
100
AcDbArc
 50
179.8660920026374
 51
271.0996967757065
  0
ARC
  5
4DA
330
1E
100
AcDbEntity
  8
0
100
AcDbCircle
 10
6.849241932406995
 20
5.159709701933061
 30
0.0
 40
0.9418066454485657
100
AcDbArc
 50
184.2278620748103
 51
295.7721380420368
  0
LINE
  5
4DB
330
1E
100
AcDbEntity
  8
0
100
AcDbLine
 10
5.564429003573439
 20
5.289791191367706
 30
0.0
 11
5.564429002715236
 21
4.007291192193513
 31
0.0
  0
LWPOLYLINE
  5
4DC
330
1E
100
AcDbEntity
  8
0
100
AcDbPolyline
 90
        4
 70
     0
 43
0.0
 10
5.819862007829179
 20
5.045183462553627
 10
6.627012832661626
 20
5.511192209918542
 42
-0.267949192509354
 10
6.723200332685947
 20
5.51119221002096
 10
8.029857665491213
 20
4.75679324885675
  0
LINE
  5
4DD
330
1E
100
AcDbEntity
  8
0
100
AcDbLine
 10
8.910566719246556
 20
4.529329924231841
 30
0.0
 11
8.910566719246556
 21
3.162536078436596
 31
0.0
  0
LINE
  5
4DE
330
1E
100
AcDbEntity
  8
0
100
AcDbLine
 10
7.896076639570367
 20
3.943613803640592
 30
0.0
 11
7.896076638201962
 21
2.716647683412558
 31
0.0
  0
LINE
  5
4DF
330
1E
100
AcDbEntity
  8
0
100
AcDbLine
 10
7.799889139632301
 20
3.999147682694025
 30
0.0
 11
7.799889138201962
 21
2.716647683519833
 31
0.0
  0
LINE
  5
4E0
330
1E
100
AcDbEntity
  8
0
100
AcDbLine
 10
8.910566719246556
 20
4.529329924231841
 30
0.0
 11
7.799889139508429
 21
3.888079924587155
 31
0.0
  0
LINE
  5
4E1
330
1E
100
AcDbEntity
  8
0
100
AcDbLine
 10
8.91056671912764
 20
4.640397682198541
 30
0.0
 11
8.910566719246556
 21
4.529329924231841
 31
0.0
  0
LINE
  5
4EA
330
1E
100
AcDbEntity
  8
0
  6
CENTER
 48
15.0
100
AcDbLine
 10
4.94079981331026
 20
18.72774262387586
 30
0.0
 11
4.94079981331026
 21
16.64625316043075
 31
0.0
  0
LINE
  5
4EB
330
1E
100
AcDbEntity
  8
0
  6
CENTER
 48
15.0
100
AcDbLine
 10
19.94079981331026
 20
18.72774262387586
 30
0.0
 11
19.94079981331026
 21
16.50618866047292
 31
0.0
  0
CIRCLE
  5
4EC
330
1E
100
AcDbEntity
  8
0
  6
HIDDEN
 48
15.0
100
AcDbCircle
 10
19.94079981331026
 20
17.96768968837252
 30
0.0
 40
0.1565
  0
LINE
  5
4F2
330
1E
100
AcDbEntity
  8
0
  6
CENTER
 48
15.0
100
AcDbLine
 10
12.44079981331026
 20
1.779940994156874
 30
0.0
 11
12.44079981331026
 21
0.352085755318825
 31
0.0
  0
TEXT
  5
1322
330
1E
100
AcDbEntity
  8
DIM
100
AcDbText
 10
10.79772942063577
 20
17.66301499185408
 30
0.0
 40
0.16604102428
  1
Back / Arrière / Atrás
  7
ROMANT
100
AcDbText
  0
MTEXT
  5
1323
330
1E
100
AcDbEntity
  8
DIM
100
AcDbMText
 10
24.02766108443171
 20
16.80655580563978
 30
0.0
 40
0.09
 41
0.0
 71
     4
 72
     5
  1
{\Ftxt.shx;Cut out size\PDimensions de l'ouverture\PTamaño del agujero}
  7
ROMANTS
 73
     1
 44
1.0
1001
ACAD
1000
MTEXTBEGIN
1070
    73
1070
     1
1070
    44
1040
1.0
1070
    74
1070
     0
1000
MTEXTEND
  0
TEXT
  5
1326
330
1E
100
AcDbEntity
  8
DIM
100
AcDbText
 10
10.78896563347288
 20
0.6971768938512995
 30
0.0
 40
0.18
  1
Front / Avant / Frente
  7
STD
100
AcDbText
  0
TEXT
  5
1327
330
1E
100
AcDbEntity
  8
0
100
AcDbText
 10
3.15651354740703
 20
6.1417545003357
 30
0.0
 40
0.11
  1

100
AcDbText
  0
TEXT
  5
1328
330
1E
100
AcDbEntity
  8
0
100
AcDbText
 10
3.15651354740703
 20
6.55608179658579
 30
0.0
 40
0.11
  1

100
AcDbText
  0
LEADER
  5
136A
330
1E
100
AcDbEntity
  8
DIM
100
AcDbLeader
  3
Standard
 76
     3
 10
22.5493746013359
 20
15.80275468696561
 30
0.0
 10
23.54821169350964
 20
16.84059379490747
 30
0.0
 10
23.85623057230403
 20
16.84059379490747
 30
0.0
1001
ACAD
1000
DSTYLE
1002
{
1070
   147
1040
0.09
1070
    77
1070
     0
1002
}
  0
MTEXT
  5
136B
330
1E
100
AcDbEntity
  8
0
100
AcDbMText
 10
4.090185768796615
 20
14.54132298358285
 30
0.0
 40
0.1
 41
4.836
 71
     1
 72
     5
  3
{\LINSTALLATION INSTRUCTIONS\P\P}1. Cut out template and fold along the fold line.\P\P2. Position template on countertop and mark off.\P\P3. Cut the hole in the countertop to the template size\P\P4. Mount faucet onto the basin.\P\P5. Place the basin 
  3
in the countertop.  Mark off the positions for the #10 screws on the underside of the countertop. Remove the basin and drill pilot holes for the screws.\P\P6. Apply waterproof sealant to the rim of the basin and countertop ensuring good coverage over
  3
 the entire area where the surfaces will meet.\P\P7. Place the basin complete with its fittings in the countertop.  Press firmly all around the basin to achieve a good seal.  Locate the brackets and fix them to the underside of the countertop with th
  3
e #10 screws. \P\PNote: Determine the length of the #10 screws according to the thickness of the countertop.  \P\P8. Secure the basin to the brackets using the #20-¼"x1-½" machine screws provided.  Tighten nuts to secure the basin to the countertop.\
  1
P\P9. Remove any surplus sealant\P\PNote: When the countertop is to be tiled or finished in laminated plastic, it is recommended that the finished surface be extended under the basin rim.
 73
     1
 44
1.0
1001
ACAD
1000
MTEXTBEGIN
1070
    73
1070
     1
1070
    44
1040
1.0
1070
    74
1070
     0
1000
MTEXTEND
  0
MTEXT
  5
1378
330
1E
100
AcDbEntity
  8
0
100
AcDbMText
 10
10.05267082012123
 20
14.54132298358285
 30
0.0
 40
0.11
 41
4.836
 71
     1
 72
     5
  3
{\LINSTRUCTIONS D'INSTALLATION:\P\P\H0.9091x;\l1.  Découper le gabarit et plier sur la ligne de pliage.\P\P2.  Placer le gabarit en positon sur le comptoir et tracer le contour.\P\P3.  Découper l'ouverture dans le comptoir d'après le gabarit.\P\P4.  
  3
Installer la robinetterie sur le lavabo.\P\P5.  Placer la lavabo dans le comptoir. Marquer les positions des vis No 10 en dessous du comptoir. Enlever le lavabo et perforer des avant-trous pour les vis.  \P\P6.  Appliquer en les recouvrant bien de sc
  3
ellant  étanche sur les bord du lavabo et du comptoir partout où les surfaces se joindront.\P\P7. Placer le lavabo au complet avec ses raccords dans le comptoir. Appuyer fermement tout autour du lavabo pour assurer un bon scellement. Repérer les dess
  3
ous du comptoir. \P\PNote: Déterminer la longueur des vis No 10 selon l'épaisseur du comptoir.\P\P8. Bien fixer le lavabo en place à l'aide des supports de fixation au moyen des vis à métaux \P(20) ¼ po x 1 ½ po incluses. Resserrer les écrous pour bi
  1
en joindre le lavabo au comptoir\P \P9. Enlever tout excédent de scellant.\P\PNote: Lorsque le comptoir doit être recouvert de tuiles ou d'une surface laminée, il est recommandé d'agrandir la surface finie sous le rebord du lavabo.}
 73
     1
 44
1.0
1001
ACAD
1000
MTEXTBEGIN
1070
    73
1070
     1
1070
    44
1040
1.0
1070
    74
1070
     0
1000
MTEXTEND
  0
MTEXT
  5
1379
330
1E
100
AcDbEntity
  8
0
100
AcDbMText
 10
16.20295015478409
 20
14.54132298358285
 30
0.0
 40
0.1
 41
4.836
 71
     1
 72
     5
  3
{\LINSTRUCCIONES PARA INSTALACIÓN:\P\P}1. Corte la plantilla y dóblela por la línea indicada.\P\P2.  Coloque la plantilla sobre la cubierta en la posición correcta y dibújela.\P\P3. Corte el agujero en la cubierta del mismo tamaño de la plantilla\P\P
  3
4. Instale los grifos en el lavamanos.\P\P5. Coloque el lavamanos sobre la cubierta. Marque por debajo de la cubierta la posición de los tornillos #10. Quite el lavamanos y taladre los agujeros guía para los tornillos.\P\P6. Aplique la pega impermeab
  3
le por debajo del borde del lavamanos asegurándose de cubrir completamente el área que toca la cubierta.\P\P7. Coloque el lavamanos completo en el agujero. Presione firmemente el lavamanos alrededor hasta  conseguir un sello uniforme. Ubique los suje
  3
tadores por debajo de la cubierta y fíjelos con los tornillos #10.\PNota: La longitud de los tornillos #10 se determina con el grueso de la cubierta.\P\P8. Asegure el lavamanos a los sujetadores usando los tornillos suministrados ¼"-20x1-1/2". Asegúr
  3
ese de apretar bien las tuercas para afianzar el lavamanos a la cubierta.\P\P9. Quite cualquier sobrante de pega.\P\PNote: Cuando la cubierta va a ser terminada con baldosas o plástico, es recomendable que se extienda por debajo del borde del lavaman
  1
os.
 73
     1
 44
1.0
1001
ACAD
1000
MTEXTBEGIN
1070
    73
1070
     1
1070
    44
1040
1.0
1070
    74
1070
     0
1000
MTEXTEND
  0
LWPOLYLINE
  5
137A
330
1E
100
AcDbEntity
  8
0
  6
HIDDEN
 48
15.0
100
AcDbPolyline
 90
        4
 70
     1
 43
0.0
 10
19.31579981331026
 20
18.59268968837252
 10
20.56579981331026
 20
18.59268968837252
 10
20.56579981331026
 20
17.09268968837252
 10
19.31579981331026
 20
17.09268968837252
  0
LWPOLYLINE
  5
137B
330
1E
100
AcDbEntity
  8
0
  6
HIDDEN
 48
15.0
100
AcDbPolyline
 90
        4
 70
     1
 43
0.0
 10
4.31579981331026
 20
17.09268968837252
 10
4.31579981331026
 20
18.59268968837252
 10
5.56579981331026
 20
18.59268968837252
 10
5.56579981331026
 20
17.09268968837252
  0
MTEXT
  5
1389
330
1E
100
AcDbEntity
  8
DIM
100
AcDbMText
 10
14.31701705760436
 20
3.628941423589648
 30
0.0
 40
0.06
 41
3.753
 71
     1
 72
     5
  1

 73
     1
 44
1.0
1001
ACAD
1000
MTEXTBEGIN
1070
    73
1070
     1
1070
    44
1040
1.0
1070
    74
1070
     0
1000
MTEXTEND
  0
MTEXT
  5
138A
330
1E
100
AcDbEntity
  8
DIM
100
AcDbMText
 10
14.22859573376962
 20
2.425193337145843
 30
0.0
 40
0.055
 41
3.262999999999999
 71
     1
 72
     5
  1

 73
     1
 44
1.0
1001
ACAD
1000
MTEXTBEGIN
1070
    73
1070
     1
1070
    44
1040
1.0
1070
    74
1070
     0
1000
MTEXTEND
  0
MTEXT
  5
1447
330
1E
100
AcDbEntity
  8
0
100
AcDbMText
 10
26.24479329400723
 20
5.926686027234886
 30
0.0
 40
0.1
 41
4.049999999999999
 71
     1
 72
     5
  1
NOTE:\PAmerican Standard takes no responsibility in customer satisfaction with use of this full size lavatory template due to variations in ware.
  7
STD
 73
     1
 44
1.0
1001
ACAD
1000
MTEXTBEGIN
1070
    73
1070
     1
1070
    44
1040
1.0
1070
    74
1070
     0
1000
MTEXTEND
  0
MTEXT
  5
1448
330
1E
100
AcDbEntity
  8
0
100
AcDbMText
 10
26.24479329400723
 20
3.833694398642812
 30
0.0
 40
0.1
 41
4.049999999999999
 71
     1
 72
     5
  1
NOTA:\PAmerican Standard no asume ninguna responsabilidad en la satisfacción del cliente que use está plantilla de tamaño natural dadas las variaciones del producto.
  7
STD
 73
     1
 44
1.0
1001
ACAD
1000
MTEXTBEGIN
1070
    73
1070
     1
1070
    44
1040
1.0
1070
    74
1070
     0
1000
MTEXTEND
  0
MTEXT
  5
1449
330
1E
100
AcDbEntity
  8
0
100
AcDbMText
 10
26.24479329400723
 20
4.888069841824954
 30
0.0
 40
0.1
 41
4.049999999999999
 71
     1
 72
     5
  1
REMARQUE:\PAmerican Standard ne peut être tenue responsable de la satisfaction du client qui utilise ce gabarit pleine grandeur, à cause des variantes du produit.
  7
STD
 73
     1
 44
1.0
1001
ACAD
1000
MTEXTBEGIN
1070
    73
1070
     1
1070
    44
1040
1.0
1070
    74
1070
     0
1000
MTEXTEND
  0
MTEXT
  5
144B
330
1E
100
AcDbEntity
  8
0
100
AcDbMText
 10
3.142629021394668
 20
7.059136517137631
 30
0.0
 40
0.11
 41
1.8555092942115
 71
     1
 72
     5
  1
Fold Line\PLigne de pliage\PLínea para doblar
 73
     1
 44
1.0
1001
ACAD
1000
MTEXTBEGIN
1070
    73
1070
     1
1070
    44
1040
1.0
1070
    74
1070
     0
1000
MTEXTEND
  0
LEADER
  5
144F
330
1E
100
AcDbEntity
  8
0
100
AcDbLeader
  3
Standard
 73
     0
 74
     0
 75
     1
 40
0.4128571428571429
 41
1.940833333333333
 76
     3
 10
20.57458695235047
 20
18.04285004168217
 30
0.0
 10
21.13835084039865
 20
18.27939706635969
 30
0.0
 10
21.28835084039865
 20
18.27939706635969
 30
0.0
340
1450
213
-0.0378383060067087
223
-0.2661872319984014
233
0.0
1001
ACAD
1000
DSTYLE
1002
{
1070
   147
1040
0.09
1070
    77
1070
     0
1002
}
  0
MTEXT
  5
1450
102
{ACAD_REACTORS
330
144F
102
}
330
1E
100
AcDbEntity
  8
0
100
AcDbMText
 10
21.41618914640536
 20
18.5455842983581
 30
0.0
 40
0.085
 41
0.0
 71
     1
 72
     1
  1
Brackets location\PLocation de l{\Fromant.shx;'}attache\PUbicación de los soportes
 73
     1
 44
1.0
1001
ACAD
1000
MTEXTBEGIN
1070
    73
1070
     1
1070
    44
1040
1.0
1070
    74
1070
     0
1000
MTEXTEND
  0
MTEXT
  5
14AE
330
1E
100
AcDbEntity
  8
0
100
AcDbMText
 10
11.11169748624604
 20
15.50737889174419
 30
0.0
 40
0.25
 41
2.654071617164149
 71
     1
 72
     5
  1
{\Fromant.shx;MEZZO 9960}
 73
     1
 44
1.0
1001
ACAD
1000
MTEXTBEGIN
1070
    73
1070
     1
1070
    44
1040
1.0
1070
    74
1070
     0
1000
MTEXTEND
  0
LINE
  5
14AF
330
1E
100
AcDbEntity
  8
0
  6
CENTER
 48
15.0
100
AcDbLine
 10
12.44079981331026
 20
17.68676058738642
 30
0.0
 11
12.44079981331026
 21
16.51943601556838
 31
0.0
  0
INSERT
  5
18F1
330
1E
100
AcDbEntity
  8
0
100
AcDbBlockReference
  2
9960-install 2
 10
11.56029999501125
 20
2.990102302507269
 30
0.0
 41
0.0234375
 42
0.0234375
 43
0.0234375
  0
MTEXT
  5
197A
330
1E
100
AcDbEntity
  8
DIM
100
AcDbMText
 10
14.32636051927309
 20
2.224675424864265
 30
0.0
 40
0.065
 41
2.846999999999999
 71
     1
 72
     5
  1
-#20 UNC 1/4" NUT (2)\P-VIS No 20 ÉCROUS DE ¼ PO À FILETAGE UNC (2)\P-TUERCA No. 20 UNC ¼"(2)
 73
     1
 44
1.0
1001
ACAD
1000
MTEXTBEGIN
1070
    73
1070
     1
1070
    44
1040
1.0
1070
    74
1070
     0
1000
MTEXTEND
  0
LEADER
  5
197B
330
1E
100
AcDbEntity
  8
DIM
100
AcDbLeader
  3
Standard
 76
     3
 10
13.87609920557591
 20
2.887850710643142
 30
0.0
 10
14.21284732114158
 20
2.191352420513645
 30
0.0
 10
14.28717039451196
 20
2.191352420513645
 30
0.0
  0
MTEXT
  5
197C
330
1E
100
AcDbEntity
  8
DIM
100
AcDbMText
 10
11.23927947871566
 20
2.4348034496427
 30
0.0
 40
0.065
 41
1.401999999999999
 71
     1
 72
     5
  1
-FLAT WASHER (4)\P-RONDELLES PLATES (4)\P-ARANDELA PLANA (4)
 73
     1
 44
1.0
1001
ACAD
1000
MTEXTBEGIN
1070
    73
1070
     1
1070
    44
1040
1.0
1070
    74
1070
     0
1000
MTEXTEND
  0
LEADER
  5
1983
330
1E
100
AcDbEntity
  8
DIM
100
AcDbLeader
  3
Standard
 76
     3
 10
13.14923159086172
 20
2.835060235661472
 30
0.0
 10
12.63670905308463
 20
2.422993274899567
 30
0.0
 10
12.50721981239381
 20
2.413410316077538
 30
0.0
  0
MTEXT
  5
1986
330
1E
100
AcDbEntity
  8
DIM
100
AcDbMText
 10
9.618304246292254
 20
3.15006381264046
 30
0.0
 40
0.065
 41
2.5
 71
     1
 72
     5
  1
-#20 UNC 1/4x1-1/2" ROUND HD. SCREW (2) \P-VIS No 20 À TÊTE RONDE DE ¼ PO X 1 ½ PO  FILETAGE UNC (2)\P-TORNILLO DE CABEZA REDONDA No. 20 UNC  ¼"x1-1/2" (2)
 73
     1
 44
1.0
1001
ACAD
1000
MTEXTBEGIN
1070
    73
1070
     1
1070
    44
1040
1.0
1070
    74
1070
     0
1000
MTEXTEND
  0
LEADER
  5
19DD
330
1E
100
AcDbEntity
  8
DIM
100
AcDbLeader
  3
Standard
 76
     3
 10
12.44434544708441
 20
19.15582092511747
 30
0.0
 10
12.94165076622113
 20
20.08371387510524
 30
0.0
 10
13.2123219361701
 20
20.10500351879502
 30
0.0
1001
ACAD
1000
DSTYLE
1002
{
1070
   147
1040
0.09
1070
    77
1070
     0
1070
    41
1040
0.125
1070
    42
1040
0.125
1070
    44
1040
0.125
1070
   140
1040
0.125
1070
   141
1040
0.125
1070
   174
1070
     1
1002
}
  0
LINE
  5
19DE
330
1E
100
AcDbEntity
  8
0
100
AcDbLine
 10
23.93601172486083
 20
19.16112957753302
 30
0.0
 11
1.543070676716467
 21
19.16112957753302
 31
0.0
  0
DIMENSION
  5
19E0
330
1E
100
AcDbEntity
  8
DIM
100
AcDbDimension
  2
*D7
 10
1.397441811421606
 20
19.15520913435038
 30
0.0
 11
1.397441811421603
 21
18.15523852799396
 31
0.0
 70
    32
  1
51mm\P(2") minimum
 71
     5
 42
1.99994121271283
  3
Standard
100
AcDbAlignedDimension
 13
2.442919420313586
 23
17.15526792163755
 33
0.0
 14
1.397441811421606
 24
19.15520913435038
 34
0.0
 50
90.0
100
AcDbRotatedDimension
  0
LINE
  5
19E4
330
1E
100
AcDbEntity
  8
0
 48
5.0
100
AcDbLine
 10
2.088934721249843
 20
18.95920913435038
 30
0.0
 11
1.94715789711522
 21
19.19067942692174
 31
0.0
  0
MTEXT
  5
19E5
330
1E
100
AcDbEntity
  8
0
 62
     6
100
AcDbMText
 10
4.060993126256562
 20
16.47931520070466
 30
0.0
 40
0.085
 41
5.919999999999999
 71
     1
 72
     5
  3
{\LNOTE:} Before cutting countertop allow \P     for handle clearance\P{\H0.5882x;  \P}"{\LREMARQUE:} Avant de couper l'ouverture,\P          prévoir le dégagement pour les poignées"\P\P{\LNOTA:} Antes de cortar la cubierta, deje\P     espacio libre 
  1
para operar
  7
STD
 73
     1
 44
1.0
1001
ACAD
1000
MTEXTBEGIN
1070
    73
1070
     1
1070
    44
1040
1.0
1070
    74
1070
     0
1000
MTEXTEND
  0
LINE
  5
19E6
330
1E
100
AcDbEntity
  8
0
 48
5.0
100
AcDbLine
 10
4.088934721249843
 20
18.95920913435038
 30
0.0
 11
3.94715789711522
 21
19.19067942692174
 31
0.0
  0
LINE
  5
19E7
330
1E
100
AcDbEntity
  8
0
 48
5.0
100
AcDbLine
 10
3.088934721249843
 20
18.95920913435038
 30
0.0
 11
2.94715789711522
 21
19.19067942692174
 31
0.0
  0
LINE
  5
19E8
330
1E
100
AcDbEntity
  8
0
 48
5.0
100
AcDbLine
 10
5.088934721249843
 20
19.15920913435038
 30
0.0
 11
4.94715789711522
 21
19.39067942692173
 31
0.0
  0
LINE
  5
19E9
330
1E
100
AcDbEntity
  8
0
 48
5.0
100
AcDbLine
 10
6.088934721249843
 20
19.15920913435038
 30
0.0
 11
5.94715789711522
 21
19.39067942692173
 31
0.0
  0
LINE
  5
19EA
330
1E
100
AcDbEntity
  8
0
 48
5.0
100
AcDbLine
 10
7.088934721249843
 20
19.15920913435038
 30
0.0
 11
6.94715789711522
 21
19.39067942692173
 31
0.0
  0
LINE
  5
19EB
330
1E
100
AcDbEntity
  8
0
 48
5.0
100
AcDbLine
 10
8.088934721249843
 20
19.15920913435038
 30
0.0
 11
7.94715789711522
 21
19.39067942692173
 31
0.0
  0
LINE
  5
19EC
330
1E
100
AcDbEntity
  8
0
 48
5.0
100
AcDbLine
 10
9.088934721249843
 20
19.15920913435038
 30
0.0
 11
8.94715789711522
 21
19.39067942692173
 31
0.0
  0
LINE
  5
19ED
330
1E
100
AcDbEntity
  8
0
 48
5.0
100
AcDbLine
 10
10.08893472124984
 20
19.15920913435038
 30
0.0
 11
9.94715789711522
 21
19.39067942692173
 31
0.0
  0
LINE
  5
19EE
330
1E
100
AcDbEntity
  8
0
 48
5.0
100
AcDbLine
 10
11.08893472124984
 20
19.15920913435038
 30
0.0
 11
10.94715789711522
 21
19.39067942692173
 31
0.0
  0
LINE
  5
19EF
330
1E
100
AcDbEntity
  8
0
 48
5.0
100
AcDbLine
 10
12.08893472124984
 20
19.15920913435038
 30
0.0
 11
11.94715789711522
 21
19.39067942692173
 31
0.0
  0
LINE
  5
19F0
330
1E
100
AcDbEntity
  8
0
 48
5.0
100
AcDbLine
 10
13.08893472124984
 20
19.15920913435038
 30
0.0
 11
12.94715789711522
 21
19.39067942692173
 31
0.0
  0
LINE
  5
19F1
330
1E
100
AcDbEntity
  8
0
 48
5.0
100
AcDbLine
 10
19.08893472124984
 20
19.15920913435038
 30
0.0
 11
18.94715789711522
 21
19.39067942692173
 31
0.0
  0
MTEXT
  5
19F2
330
1E
100
AcDbEntity
  8
0
100
AcDbMText
 10
13.45938724298701
 20
20.25072294303718
 30
0.0
 40
0.085
 41
2.834996009874102
 71
     1
 72
     5
  1
Finished wall / Back splash\PMur fini / Dosseret\PPared acabada / Pared posterior
  7
STD
 73
     1
 44
1.0
1001
ACAD
1000
MTEXTBEGIN
1070
    73
1070
     1
1070
    44
1040
1.0
1070
    74
1070
     0
1000
MTEXTEND
  0
LINE
  5
19F3
330
1E
100
AcDbEntity
  8
0
 48
5.0
100
AcDbLine
 10
14.08893472124984
 20
19.15920913435038
 30
0.0
 11
13.94715789711522
 21
19.39067942692173
 31
0.0
  0
LINE
  5
19F4
330
1E
100
AcDbEntity
  8
0
 48
5.0
100
AcDbLine
 10
15.08893472124984
 20
19.15920913435038
 30
0.0
 11
14.94715789711522
 21
19.39067942692173
 31
0.0
  0
LINE
  5
19F5
330
1E
100
AcDbEntity
  8
0
 48
5.0
100
AcDbLine
 10
16.08893472124984
 20
19.15920913435038
 30
0.0
 11
15.94715789711522
 21
19.39067942692173
 31
0.0
  0
LINE
  5
19F6
330
1E
100
AcDbEntity
  8
0
 48
5.0
100
AcDbLine
 10
17.08893472124984
 20
19.15920913435038
 30
0.0
 11
16.94715789711522
 21
19.39067942692173
 31
0.0
  0
LINE
  5
19F7
330
1E
100
AcDbEntity
  8
0
 48
5.0
100
AcDbLine
 10
18.08893472124984
 20
19.15920913435038
 30
0.0
 11
17.94715789711522
 21
19.39067942692173
 31
0.0
  0
LINE
  5
19F8
330
1E
100
AcDbEntity
  8
0
 48
5.0
100
AcDbLine
 10
20.08893472124984
 20
19.15920913435038
 30
0.0
 11
19.94715789711522
 21
19.39067942692173
 31
0.0
  0
LINE
  5
19F9
330
1E
100
AcDbEntity
  8
0
 48
5.0
100
AcDbLine
 10
21.08893472124984
 20
19.15920913435038
 30
0.0
 11
20.94715789711522
 21
19.39067942692173
 31
0.0
  0
LINE
  5
19FA
330
1E
100
AcDbEntity
  8
0
 48
5.0
100
AcDbLine
 10
22.08893472124984
 20
19.15920913435038
 30
0.0
 11
21.94715789711522
 21
19.39067942692173
 31
0.0
  0
LINE
  5
19FB
330
1E
100
AcDbEntity
  8
0
 48
5.0
100
AcDbLine
 10
23.08893472124984
 20
19.15920913435038
 30
0.0
 11
22.94715789711522
 21
19.39067942692173
 31
0.0
  0
MTEXT
  5
1A6E
102
{ACAD_REACTORS
330
1A6F
102
}
330
1E
100
AcDbEntity
  8
DIM
100
AcDbMText
 10
8.144565616752529
 20
5.946245874460359
 30
0.0
 40
0.065
 41
0.0
 71
     1
 72
     1
  1
FURNITURE (BY OTHERS)\PMEUBLES (AUTRES)\PARMARIO (POR OTROS)
 73
     1
 44
1.0
1001
ACAD
1000
MTEXTBEGIN
1070
    73
1070
     1
1070
    44
1040
1.0
1070
    74
1070
     0
1000
MTEXTEND
  0
LEADER
  5
1A6F
330
1E
100
AcDbEntity
  8
DIM
100
AcDbLeader
  3
Standard
 73
     0
 40
0.2816666666666667
 41
1.278333333333333
 76
     3
 10
7.696582225040933
 20
5.341291956651534
 30
0.0
 10
8.11576801677306
 20
5.620991649355751
 30
0.0
 10
8.276017327933587
 20
5.620920967587991
 30
0.0
340
1A6E
213
0.2214517111810576
223
-0.3253249068723678
233
0.0
1001
ACAD
1000
DSTYLE
1002
{
1070
   147
1040
0.09
1070
    77
1070
     0
1002
}
  0
TEXT
  5
1A99
330
1E
100
AcDbEntity
  8
0
100
AcDbText
 10
23.1073469110908
 20
0.5108377085874708
 30
0.0
 40
0.1
  1
First Issue
100
AcDbText
  0
TEXT
  5
1A9C
330
1E
100
AcDbEntity
  8
0
100
AcDbText
 10
25.03552794346801
 20
0.5839450101157738
 30
0.0
 40
0.07
  1
10/1
100
AcDbText
  0
TEXT
  5
1A9D
330
1E
100
AcDbEntity
  8
0
100
AcDbText
 10
25.07921238418989
 20
0.4709967660534976
 30
0.0
 40
0.07
  1
02
100
AcDbText
  0
TEXT
  5
1AA0
330
1E
100
AcDbEntity
  8
0
100
AcDbText
 10
25.39728268218642
 20
0.5840940327834872
 30
0.0
 40
0.07
  1
CVC-02
 41
0.75
100
AcDbText
  0
TEXT
  5
1AA1
330
1E
100
AcDbEntity
  8
0
100
AcDbText
 10
25.39728268218642
 20
0.4674273661168204
 30
0.0
 40
0.07
  1
700-721
 41
0.75
100
AcDbText
  0
LINE
  5
1AAB
330
1E
100
AcDbEntity
  8
0
100
AcDbLine
 10
2.558947748941813
 20
17.15526792163755
 30
0.0
 11
2.358947748941812
 21
17.15526792163755
 31
0.0
  0
LINE
  5
1AAD
330
1E
100
AcDbEntity
  8
0
100
AcDbLine
 10
2.358947748941812
 20
16.95526792163755
 30
0.0
 11
2.358947748941812
 21
17.15526792163755
 31
0.0
  0
LINE
  5
1AAE
330
1E
100
AcDbEntity
  8
0
100
AcDbLine
 10
22.32265187767871
 20
17.15526792163754
 30
0.0
 11
22.52265187767871
 21
17.15526792163754
 31
0.0
  0
LINE
  5
1AAF
330
1E
100
AcDbEntity
  8
0
100
AcDbLine
 10
22.52265187767871
 20
16.95526792163754
 30
0.0
 11
22.52265187767871
 21
17.15526792163754
 31
0.0
  0
DIMENSION
  5
1B1B
102
{ACAD_XDICTIONARY
360
1B29
102
}
102
{ACAD_REACTORS
330
1B34
102
}
330
1E
100
AcDbEntity
  8
DIM
100
AcDbDimension
  2
*D8
 10
1.40347208846822
 20
6.405267921637549
 30
0.0
 11
1.40347208846822
 21
11.78026792163755
 31
0.0
 70
   160
  1
273mm\P(10 3/4")
 71
     5
 42
10.75
  3
Standard
100
AcDbAlignedDimension
 13
2.380419420313586
 23
17.15526792163755
 33
0.0
 14
2.517457301105828
 24
6.405267921637548
 34
0.0
 50
90.0
100
AcDbRotatedDimension
1001
ACAD
1000
DSTYLE
1002
{
1070
   277
1070
     5
1002
}
  0
TEXT
  5
1B96
330
1E
100
AcDbEntity
  8
0
100
AcDbText
 10
22.7401178249263
 20
0.7653336669808582
 30
0.0
 40
0.1
  1
A
100
AcDbText
  0
TEXT
  5
1B97
330
1E
100
AcDbEntity
  8
0
100
AcDbText
 10
23.11385917551834
 20
0.7606659378911545
 30
0.0
 40
0.1
  1
Made Cutout Larger
100
AcDbText
  0
TEXT
  5
1BB3
330
1E
100
AcDbEntity
  8
0
100
AcDbText
 10
25.03533488024256
 20
0.8333410293471146
 30
0.0
 40
0.07
  1
11/4
100
AcDbText
  0
TEXT
  5
1BB4
330
1E
100
AcDbEntity
  8
0
100
AcDbText
 10
25.07901932096443
 20
0.7203927852848385
 30
0.0
 40
0.07
  1
02
100
AcDbText
  0
TEXT
  5
1BB5
330
1E
100
AcDbEntity
  8
0
100
AcDbText
 10
25.39708961896096
 20
0.8334900520148281
 30
0.0
 40
0.07
  1
CVC-02
 41
0.75
100
AcDbText
  0
TEXT
  5
1BB6
330
1E
100
AcDbEntity
  8
0
100
AcDbText
 10
25.39708961896096
 20
0.7168233853481614
 30
0.0
 40
0.07
  1
700-789
 41
0.75
100
AcDbText
  0
TEXT
  5
1BD8
330
1E
100
AcDbEntity
  8
0
 62
     6
100
AcDbText
 10
28.32210292800287
 20
0.3442879633769906
 30
0.0
 40
0.075
  1
SCALE
  7
STD
100
AcDbText
  0
TEXT
  5
1BD9
330
1E
100
AcDbEntity
  8
0
 62
     6
100
AcDbText
 10
28.32210292800287
 20
0.5806832829651172
 30
0.0
 40
0.075
  1
DATE
  7
STD
100
AcDbText
  0
TEXT
  5
1BDA
330
1E
100
AcDbEntity
  8
0
 62
     6
100
AcDbText
 10
27.25382605941815
 20
0.9902936499301006
 30
0.0
 40
0.075
  1
CHECKED
  7
STD
100
AcDbText
  0
LINE
  5
1BDB
330
1E
100
AcDbEntity
  8
0
 62
     6
100
AcDbLine
 10
27.18000000000001
 20
1.093637639907433
 30
0.0
 11
27.18000000000001
 21
0.7936376399074505
 31
0.0
  0
TEXT
  5
1BDC
330
1E
100
AcDbEntity
  8
0
 62
     6
100
AcDbText
 10
26.18230805304336
 20
0.3969584394642767
 30
0.0
 40
0.075
  1
SUPERSEDES
  7
STD
100
AcDbText
  0
TEXT
  5
1BDD
330
1E
100
AcDbEntity
  8
0
 62
     6
100
AcDbText
 10
26.18230805304336
 20
0.6995090681619503
 30
0.0
 40
0.075
  1
APPROVED
  7
STD
100
AcDbText
  0
TEXT
  5
1BDE
330
1E
100
AcDbEntity
  8
0
 62
     6
100
AcDbText
 10
26.18230805304336
 20
0.9896586379597977
 30
0.0
 40
0.075
  1
DRAWN
  7
STD
100
AcDbText
  0
TEXT
  5
1BE1
330
1E
100
AcDbEntity
  8
0
 62
     6
100
AcDbText
 10
26.19063176598266
 20
2.438515754169578
 30
0.0
 40
0.075
  1
DESCRIPTION
  7
STD
100
AcDbText
  0
TEXT
  5
1BE3
330
1E
100
AcDbEntity
  8
0
 62
     6
100
AcDbText
 10
29.29862947460845
 20
0.5725287817412892
 30
0.0
 40
0.075
  1
DRAWING NUMBER
  7
STD
100
AcDbText
  0
TEXT
  5
1BE4
330
1E
100
AcDbEntity
  8
0
 62
     6
100
AcDbText
 10
28.89370523741551
 20
0.8353857659922766
 30
0.0
 40
0.12
  1
PLUMBING PRODUCTS
  7
STD
100
AcDbText
  0
LINE
  5
1BE5
330
1E
100
AcDbEntity
  8
0
 62
     6
100
AcDbLine
 10
26.09999999999999
 20
0.4936376399074394
 30
0.0
 11
28.25
 21
0.4936376399074394
 31
0.0
  0
LINE
  5
1BE6
330
1E
100
AcDbEntity
  8
0
 62
     6
100
AcDbLine
 10
26.09999999999999
 20
0.7936376399074221
 30
0.0
 11
28.25
 21
0.7936376399074505
 31
0.0
  0
LINE
  5
1BE7
330
1E
100
AcDbEntity
  8
0
 62
     6
100
AcDbLine
 10
26.09999999999999
 20
1.093637639907433
 30
0.0
 11
28.25
 21
1.093637639907433
 31
0.0
  0
LINE
  5
1BE8
330
1E
100
AcDbEntity
  8
0
 62
     6
100
AcDbLine
 10
26.09999999999999
 20
1.513637639907449
 30
0.0
 11
28.25
 21
1.513637639907449
 31
0.0
  0
LINE
  5
1BE9
330
1E
100
AcDbEntity
  8
0
 62
     6
100
AcDbLine
 10
28.25
 20
0.4436376399074281
 30
0.0
 11
29.25
 21
0.4436376399074281
 31
0.0
  0
LINE
  5
1BEE
330
1E
100
AcDbEntity
  8
OL
100
AcDbLine
 10
26.04414632110928
 20
0.188423802292484
 30
0.0
 11
26.04414632110928
 21
2.552061442199913
 31
0.0
  0
LINE
  5
1BEF
330
1E
100
AcDbEntity
  8
OL
100
AcDbLine
 10
26.09999999999999
 20
2.563637639907433
 30
0.0
 11
31.5
 21
2.563637639907432
 31
0.0
  0
LINE
  5
1BF0
330
1E
100
AcDbEntity
  8
OL
100
AcDbLine
 10
26.09999999999999
 20
1.943637639907427
 30
0.0
 11
31.5
 21
1.943637639907427
 31
0.0
  0
LINE
  5
1BF1
330
1E
100
AcDbEntity
  8
OL
100
AcDbLine
 10
26.09999999999999
 20
2.563637639907432
 30
0.0
 11
26.09999999999999
 21
0.2000000000000035
 31
0.0
  0
LINE
  5
1BF2
330
1E
100
AcDbEntity
  8
OL
100
AcDbLine
 10
28.25
 20
1.943637639907427
 30
0.0
 11
28.25
 21
0.2000000000000035
 31
0.0
  0
LINE
  5
1BF3
330
1E
100
AcDbEntity
  8
OL
100
AcDbLine
 10
28.25
 20
0.6936376399074278
 30
0.0
 11
31.5
 21
0.6936376399074278
 31
0.0
  0
LINE
  5
1BF4
330
1E
100
AcDbEntity
  8
OL
100
AcDbLine
 10
29.25
 20
0.6936376399074278
 30
0.0
 11
29.25
 21
0.2000000000000035
 31
0.0
  0
LINE
  5
1BF5
330
1E
100
AcDbEntity
  8
OL
100
AcDbLine
 10
31.115
 20
0.6936376399074278
 30
0.0
 11
31.115
 21
0.2000000000000035
 31
0.0
  0
LINE
  5
1BF6
330
1E
100
AcDbEntity
  8
OL
100
AcDbLine
 10
30.125
 20
1.943637639907427
 30
0.0
 11
30.125
 21
2.563637639907432
 31
0.0
  0
LINE
  5
1BF7
330
1E
100
AcDbEntity
  8
0
 62
     6
100
AcDbLine
 10
24.94414632110929
 20
2.552061442199913
 30
0.0
 11
24.94414632110929
 21
0.188423802292484
 31
0.0
  0
LINE
  5
1BF8
330
1E
100
AcDbEntity
  8
0
 62
     6
100
AcDbLine
 10
25.34414632110927
 20
2.552061442199913
 30
0.0
 11
25.34414632110927
 21
0.188423802292484
 31
0.0
  0
LINE
  5
1BFA
330
1E
100
AcDbEntity
  8
0
 62
     6
100
AcDbLine
 10
22.58414632110926
 20
2.319839219977693
 30
0.0
 11
26.04414632110928
 21
2.319839219977693
 31
0.0
  0
LINE
  5
1BFB
330
1E
100
AcDbEntity
  8
0
 62
     6
100
AcDbLine
 10
22.58414632110926
 20
2.087616997755474
 30
0.0
 11
26.04414632110928
 21
2.087616997755474
 31
0.0
  0
LINE
  5
1BFC
330
1E
100
AcDbEntity
  8
0
 62
     6
100
AcDbLine
 10
22.58414632110926
 20
1.855394775533254
 30
0.0
 11
26.04414632110928
 21
1.855394775533254
 31
0.0
  0
LINE
  5
1BFD
330
1E
100
AcDbEntity
  8
0
 62
     6
100
AcDbLine
 10
22.58414632110926
 20
1.623172553311035
 30
0.0
 11
26.04414632110928
 21
1.623172553311035
 31
0.0
  0
LINE
  5
1BFE
330
1E
100
AcDbEntity
  8
0
 62
     6
100
AcDbLine
 10
22.58414632110926
 20
1.390950331088815
 30
0.0
 11
26.04414632110928
 21
1.390950331088815
 31
0.0
  0
LINE
  5
1BFF
330
1E
100
AcDbEntity
  8
0
 62
     6
100
AcDbLine
 10
22.58414632110926
 20
1.158728108866596
 30
0.0
 11
26.04414632110928
 21
1.158728108866596
 31
0.0
  0
LINE
  5
1C00
330
1E
100
AcDbEntity
  8
0
 62
     6
100
AcDbLine
 10
22.58414632110926
 20
0.9265058866443485
 30
0.0
 11
26.04414632110928
 21
0.9265058866443485
 31
0.0
  0
LINE
  5
1C01
330
1E
100
AcDbEntity
  8
0
 62
     6
100
AcDbLine
 10
22.58414632110926
 20
0.6942836644221292
 30
0.0
 11
26.04414632110928
 21
0.6942836644221292
 31
0.0
  0
LINE
  5
1C02
330
1E
100
AcDbEntity
  8
0
 62
     6
100
AcDbLine
 10
22.58414632110926
 20
0.4320614421999086
 30
0.0
 11
26.04414632110928
 21
0.4320614421999086
 31
0.0
  0
TEXT
  5
1C03
330
1E
100
AcDbEntity
  8
0
 62
     6
100
AcDbText
 10
24.97854708081988
 20
0.2774696004533148
 30
0.0
 40
0.08
  1
DATE
  7
STD
100
AcDbText
  0
TEXT
  5
1C04
330
1E
100
AcDbEntity
  8
0
 62
     6
100
AcDbText
 10
25.53640728130772
 20
0.2640253111695607
 30
0.0
 40
0.08
  1
E.C.N.
  7
STD
100
AcDbText
  0
TEXT
  5
1C06
330
1E
100
AcDbEntity
  8
0
 62
     6
100
AcDbText
 10
23.50594026234518
 20
0.2717891387577247
 30
0.0
 40
0.08
  1
DESCRIPTION
  7
STD
100
AcDbText
  0
TEXT
  5
1C07
330
1E
100
AcDbEntity
  8
0
 62
     6
100
AcDbText
 10
22.66697632617819
 20
0.2736576428603137
 30
0.0
 40
0.08
  1
REF.
  7
STD
100
AcDbText
  0
LINE
  5
1C08
330
1E
100
AcDbEntity
  8
0
 62
     6
100
AcDbLine
 10
22.97414632110928
 20
2.552061442199913
 30
0.0
 11
22.97414632110928
 21
0.188423802292484
 31
0.0
  0
LINE
  5
1C09
330
1E
100
AcDbEntity
  8
OL
100
AcDbLine
 10
22.58414632110926
 20
2.552061442199913
 30
0.0
 11
26.04414632110928
 21
2.552061442199913
 31
0.0
  0
LINE
  5
1C0A
330
1E
100
AcDbEntity
  8
OL
100
AcDbLine
 10
26.04414632110928
 20
2.552061442199913
 30
0.0
 11
26.04414632110928
 21
0.188423802292484
 31
0.0
  0
LINE
  5
1C0B
330
1E
100
AcDbEntity
  8
OL
100
AcDbLine
 10
22.58414632110926
 20
2.552061442199913
 30
0.0
 11
22.58414632110927
 21
0.188423802292484
 31
0.0
  0
LINE
  5
1C99
102
{ACAD_REACTORS
330
1CB6
102
}
330
1E
100
AcDbEntity
  8
0
100
AcDbLine
 10
18.9029752549831
 20
20.53778438638666
 30
0.0
 11
18.9029752549831
 21
19.78778438638665
 31
0.0
  0
LINE
  5
1C9A
102
{ACAD_REACTORS
330
1CB6
102
}
330
1E
100
AcDbEntity
  8
0
100
AcDbLine
 10
30.90297525498311
 20
20.53778438638666
 30
0.0
 11
30.90297525498311
 21
19.78778438638665
 31
0.0
  0
DIMENSION
  5
1C9D
102
{ACAD_XDICTIONARY
360
1CAB
102
}
102
{ACAD_REACTORS
330
1CB6
102
}
330
1E
100
AcDbEntity
  8
0
100
AcDbDimension
  2
*D9
 10
30.90297525498311
 20
20.44167580044432
 30
0.0
 11
24.90297525498311
 21
20.44167580044432
 31
0.0
 70
    32
 71
     5
 42
12.0
  3
Standard
100
AcDbAlignedDimension
 13
18.9029752549831
 23
20.16278438638666
 33
0.0
 14
30.90297525498311
 24
20.16278438638666
 34
0.0
100
AcDbRotatedDimension
1001
ACAD
1000
DSTYLE
1002
{
1070
   271
1070
     0
1070
   140
1040
0.25
1070
    41
1040
0.25
1002
}
  0
INSERT
  5
1CDD
330
1E
100
AcDbEntity
  8
0
100
AcDbBlockReference
  2
Full Scale Note
 10
24.86875677208859
 20
19.9046151463488
 30
0.0
 41
1.27
 42
1.27
 43
1.27
  0
LINE
  5
1D03
330
1E
100
AcDbEntity
  8
DBDR
100
AcDbLine
 10
0.0
 20
20.7
 30
0.0
 11
25.1031167462559
 21
20.7
 31
0.0
  0
LINE
  5
1D07
330
1E
100
AcDbEntity
  8
DBDR
100
AcDbLine
 10
25.60293272629543
 20
20.7
 30
0.0
 11
25.1031167462559
 21
20.7
 31
0.0
  0
LINE
  5
1D08
330
1E
100
AcDbEntity
  8
DBDR
100
AcDbLine
 10
25.1031167462559
 20
20.7
 30
0.0
 11
31.5
 21
20.7
 31
0.0
  0
LINE
  5
1D09
330
1E
100
AcDbEntity
  8
DBDR
100
AcDbLine
 10
31.5
 20
20.7
 30
0.0
 11
31.5
 21
0.2000000000000028
 31
0.0
  0
LINE
  5
1D0A
330
1E
100
AcDbEntity
  8
DBDR
100
AcDbLine
 10
31.5
 20
0.2000000000000028
 30
0.0
 11
0.0
 21
0.1999999999999993
 31
0.0
  0
LINE
  5
1D0B
330
1E
100
AcDbEntity
  8
DBDR
100
AcDbLine
 10
0.0
 20
0.1999999999999993
 30
0.0
 11
0.0
 21
20.7
 31
0.0
  0
MTEXT
  5
1D3E
330
1E
100
AcDbEntity
  8
0
100
AcDbMText
 10
29.87487853524087
 20
1.505293301125146
 30
0.0
 40
0.25
 41
3.22485314309884
 71
     5
 72
     5
  1
AMERICAN STANDARD
 73
     1
 44
1.0
1001
ACAD
1000
MTEXTBEGIN
1070
    73
1070
     1
1070
    44
1040
1.0
1070
    74
1070
     0
1000
MTEXTEND
  0
TEXT
  5
1D3F
330
1E
100
AcDbEntity
  8
0
100
AcDbText
 10
10.40342778277668
 20
15.7411148085029
 30
0.0
 40
0.25
  1
AMERICAN STANDARD
 72
     1
 11
12.44509444944334
 21
15.7411148085029
 31
0.0
100
AcDbText
  0
VIEWPORT
  5
D7
102
{ACAD_XDICTIONARY
360
1D49
102
}
330
1A
100
AcDbEntity
 67
     1
  8
0
100
AcDbViewport
 10
15.04672454646667
 20
9.782589846091282
 30
0.0
 40
39.80736776599529
 41
21.88765237294274
 68
     1
 69
     1
 12
15.04672454646667
 22
9.782589846091282
 13
0.0
 23
0.0
 14
0.5
 24
0.5
 15
0.5
 25
0.5
 16
0.0
 26
0.0
 36
1.0
 17
0.0
 27
0.0
 37
0.0
 42
50.0
 43
0.0
 44
0.0
 45
21.88765237294274
 50
0.0
 51
0.0
 72
   100
 90
    32800
  1

281
     0
 71
     1
 74
     0
110
0.0
120
0.0
130
0.0
111
1.0
121
0.0
131
0.0
112
0.0
122
1.0
132
0.0
 79
     0
146
0.0
  0
VIEWPORT
  5
D9
102
{ACAD_XDICTIONARY
360
1D4B
102
}
330
1A
100
AcDbEntity
 67
     1
  8
0
100
AcDbViewport
 10
8.849174169604911
 20
7.424695771650305
 30
0.0
 40
15.76634844181616
 41
13.22839152747112
 68
     2
 69
     2
 12
32.34526513376024
 22
24.17387498612727
 13
0.0
 23
0.0
 14
1.0
 24
1.0
 15
0.0
 25
0.0
 16
0.0
 26
0.0
 36
1.0
 17
0.0
 27
0.0
 37
0.0
 42
50.0
 43
0.0
 44
0.0
 45
54.62033776510054
 50
0.0
 51
0.0
 72
   100
 90
    32768
  1

281
     0
 71
     1
 74
     0
110
0.0
120
0.0
130
0.0
111
1.0
121
0.0
131
0.0
112
0.0
122
1.0
132
0.0
 79
     0
146
0.0
  0
ENDSEC
  0
SECTION
  2
OBJECTS
  0
DICTIONARY
  5
C
330
0
100
AcDbDictionary
281
     1
  3
ACAD_COLOR
350
1C10
  3
ACAD_GROUP
350
D
  3
ACAD_LAYOUT
350
19
  3
ACAD_MATERIAL
350
1C0F
  3
ACAD_MLEADERSTYLE
350
1C8E
  3
ACAD_MLINESTYLE
350
16
  3
ACAD_PLOTSETTINGS
350
18
  3
ACAD_PLOTSTYLENAME
350
E
  3
ACAD_SCALELIST
350
1C6C
  3
ACAD_TABLESTYLE
350
1C11
  3
ACAD_VISUALSTYLE
350
1C4A
  3
AcadDim
350
1369
  3
ACDB_RECOMPOSE_DATA
350
1CF2
  3
AcDbVariableDictionary
350
109
  3
DWGPROPS
350
1D44
  0
DICTIONARY
  5
1CDE
330
10
100
AcDbDictionary
280
     1
281
     1
  3
ADSK_XREC_LAYER_RECONCILED
360
1CDF
  0
DICTIONARY
  5
1CE2
330
36
100
AcDbDictionary
280
     1
281
     1
  3
ADSK_XREC_LAYER_RECONCILED
360
1CE3
  0
DICTIONARY
  5
1CE4
330
37
100
AcDbDictionary
280
     1
281
     1
  3
ADSK_XREC_LAYER_RECONCILED
360
1CE5
  0
DICTIONARY
  5
1CE8
330
390
100
AcDbDictionary
280
     1
281
     1
  3
ADSK_XREC_LAYER_RECONCILED
360
1CE9
  0
DICTIONARY
  5
1CEC
330
156A
100
AcDbDictionary
280
     1
281
     1
  3
ADSK_XREC_LAYER_RECONCILED
360
1CED
  0
DICTIONARY
  5
1C9B
330
1E
100
AcDbDictionary
280
     1
281
     1
  3
ACAD_SORTENTS
360
1C9C
  0
DICTIONARY
  5
1CD8
330
1CD6
100
AcDbDictionary
280
     1
281
     1
  3
ACAD_SORTENTS
360
1CD9
  0
DICTIONARY
  5
1B29
330
1B1B
100
AcDbDictionary
280
     1
281
     1
  3
ACAD_DIMASSOC
360
1B34
  0
DICTIONARY
  5
1CAB
330
1C9D
100
AcDbDictionary
280
     1
281
     1
  3
ACAD_DIMASSOC
360
1CB6
  0
DICTIONARY
  5
1D49
330
D7
100
AcDbDictionary
280
     1
281
     1
  3
ACAD_XREC_ROUNDTRIP
360
1D4A
  0
DICTIONARY
  5
1D4B
330
D9
100
AcDbDictionary
280
     1
281
     1
  3
ACAD_XREC_ROUNDTRIP
360
1D4C
  0
DICTIONARY
  5
1C10
102
{ACAD_REACTORS
330
C
102
}
330
C
100
AcDbDictionary
281
     1
  0
DICTIONARY
  5
D
102
{ACAD_REACTORS
330
C
102
}
330
C
100
AcDbDictionary
281
     1
  0
DICTIONARY
  5
19
102
{ACAD_REACTORS
330
C
102
}
330
C
100
AcDbDictionary
281
     1
  3
Layout1
350
1D
  3
Model
350
21
  0
DICTIONARY
  5
1C0F
102
{ACAD_REACTORS
330
C
102
}
330
C
100
AcDbDictionary
281
     1
  3
ByBlock
350
1C48
  3
ByLayer
350
1C47
  3
Global
350
1C49
  0
DICTIONARY
  5
1C8E
102
{ACAD_REACTORS
330
C
102
}
330
C
100
AcDbDictionary
281
     1
  3
Standard
350
1C8F
  0
DICTIONARY
  5
16
102
{ACAD_REACTORS
330
C
102
}
330
C
100
AcDbDictionary
281
     1
  3
Standard
350
17
  0
DICTIONARY
  5
18
102
{ACAD_REACTORS
330
C
102
}
330
C
100
AcDbDictionary
281
     1
  0
ACDBDICTIONARYWDFLT
  5
E
102
{ACAD_REACTORS
330
C
102
}
330
C
100
AcDbDictionary
281
     1
  3
Normal
350
F
100
AcDbDictionaryWithDefault
340
F
  0
DICTIONARY
  5
1C6C
102
{ACAD_REACTORS
330
C
102
}
330
C
100
AcDbDictionary
281
     1
  3
A0
350
1C6D
  3
A1
350
1C6E
  3
A2
350
1C6F
  3
A3
350
1C70
  3
A4
350
1C71
  3
A5
350
1C72
  3
A6
350
1C73
  3
A7
350
1C74
  3
A8
350
1C75
  3
A9
350
1C76
  3
B0
350
1C77
  3
B1
350
1C78
  3
B2
350
1C79
  3
B3
350
1C7A
  3
B4
350
1C7B
  3
B5
350
1C7C
  3
B6
350
1C7D
  3
B7
350
1C7E
  3
B8
350
1C7F
  3
B9
350
1C80
  3
C0
350
1C81
  3
C1
350
1C82
  3
C2
350
1C83
  3
C3
350
1C84
  3
C4
350
1C85
  3
C5
350
1C86
  3
C6
350
1C87
  3
C7
350
1C88
  3
C8
350
1C89
  3
C9
350
1C8A
  3
D0
350
1C8B
  3
D1
350
1C8C
  3
D2
350
1C8D
  0
DICTIONARY
  5
1C11
102
{ACAD_REACTORS
330
C
102
}
330
C
100
AcDbDictionary
281
     1
  3
Standard
350
1C12
  0
DICTIONARY
  5
1C4A
102
{ACAD_REACTORS
330
C
102
}
330
C
100
AcDbDictionary
281
     1
  3
2dWireframe
350
1C50
  3
3D Hidden
350
1C52
  3
3dWireframe
350
1C51
  3
Basic
350
1C4F
  3
Brighten
350
1C56
  3
ColorChange
350
1C5A
  3
Conceptual
350
1C53
  3
Dim
350
1C55
  3
Facepattern
350
1C59
  3
Flat
350
1C4B
  3
FlatWithEdges
350
1C4C
  3
Gouraud
350
1C4D
  3
GouraudWithEdges
350
1C4E
  3
Linepattern
350
1C58
  3
Realistic
350
1C54
  3
Thicken
350
1C57
  0
XRECORD
  5
1369
102
{ACAD_REACTORS
330
C
102
}
330
C
100
AcDbXrecord
280
     1
 90
   990106
  3

 60
     0
 61
     0
 62
     1
 63
     3
 64
     0
 65
     0
 66
     0
 67
     3
 68
     1
 69
     0
 70
     0
 71
     0
 72
     0
 40
0.0
170
     0
340
1450
  0
XRECORD
  5
1CF2
102
{ACAD_REACTORS
330
C
102
}
330
C
100
AcDbXrecord
280
     1
 90
        1
330
1C12
  0
DICTIONARY
  5
109
102
{ACAD_REACTORS
330
C
102
}
330
C
100
AcDbDictionary
281
     1
  3
CANNOSCALE
350
1CF5
  3
CMLEADERSTYLE
350
1CF3
  3
CTABLESTYLE
350
1C29
  3
DIMASSOC
350
10B
  3
HIDETEXT
350
10A
  3
INDEXCTL
350
1D42
  3
LAYEREVAL
350
1CF7
  3
LAYERNOTIFY
350
1CF8
  3
LIGHTINGUNITS
350
1CF6
  3
MSLTSCALE
350
1CF4
  3
SORTENTS
350
1D41
  0
XRECORD
  5
1D44
102
{ACAD_REACTORS
330
C
102
}
330
C
100
AcDbXrecord
280
     1
  1
DWGPROPS COOKIE
  2

  3

  4

  6

  7

  8
merlob
  9

300
=
301
=
302
=
303
=
304
=
305
=
306
=
307
=
308
=
309
=
 40
1.389330821759259
 41
2448978.529920139
 42
2454840.606943947
  1

 90
        0
  0
XRECORD
  5
1CDF
102
{ACAD_REACTORS
330
1CDE
102
}
330
1CDE
100
AcDbXrecord
280
     1
290
     1
  0
XRECORD
  5
1CE3
102
{ACAD_REACTORS
330
1CE2
102
}
330
1CE2
100
AcDbXrecord
280
     1
290
     1
  0
XRECORD
  5
1CE5
102
{ACAD_REACTORS
330
1CE4
102
}
330
1CE4
100
AcDbXrecord
280
     1
290
     1
  0
XRECORD
  5
1CE9
102
{ACAD_REACTORS
330
1CE8
102
}
330
1CE8
100
AcDbXrecord
280
     1
290
     1
  0
XRECORD
  5
1CED
102
{ACAD_REACTORS
330
1CEC
102
}
330
1CEC
100
AcDbXrecord
280
     1
290
     1
  0
SORTENTSTABLE
  5
1C9C
102
{ACAD_REACTORS
330
1C9B
102
}
330
1C9B
100
AcDbSortentsTable
330
1E
331
136B
  5
136B
331
137B
  5
137B
331
19F3
  5
1A6E
331
1C00
  5
1C0A
331
19FB
  5
1AAD
331
1C08
  5
1D04
331
197C
  5
197C
331
1BD9
  5
1BE5
331
4DA
  5
4DA
331
100
  5
100
331
144B
  5
144B
331
1BE1
  5
1BEB
331
4EA
  5
4EA
331
1BE9
  5
1BF2
331
4F2
  5
4F2
331
1D09
  5
19E7
331
19E4
  5
19ED
331
1BF1
  5
1BFB
331
3F3
  5
3F3
331
19EC
  5
19F5
331
19F4
  5
1A6F
331
1AAB
  5
1BB5
331
1C01
  5
1C0B
331
443
  5
443
331
1C09
  5
1D05
331
1BDA
  5
1BE6
331
1B1B
  5
1BDA
331
4DB
  5
4DB
331
4EB
  5
4EB
331
19DD
  5
19EA
331
1D0A
  5
19E8
331
19E5
  5
19EE
331
1A9C
  5
1B96
331
1BF2
  5
1BFC
331
3F4
  5
3F4
331
19ED
  5
19F6
331
1BFA
  5
1C03
331
161
  5
161
331
19F5
  5
1A99
331
1C02
  5
1C99
331
444
  5
444
331
1BB3
  5
1BDD
331
1C0A
  5
1D06
331
1BDB
  5
1BE7
331
4DC
  5
4DC
331
1986
  5
1986
331
1D07
  5
19E5
331
102
  5
102
331
1326
  5
1326
331
1BE3
  5
1BEC
331
4EC
  5
4EC
331
19DE
  5
19EB
331
1D0B
  5
19E9
331
19E6
  5
19EF
331
1A9D
  5
1B97
331
1BF3
  5
1BFD
331
3F5
  5
3F5
331
19EE
  5
19F7
331
1BFB
  5
1C04
331
162
  5
162
331
282
  5
282
331
1AAD
  5
1BB6
331
19F6
  5
1A9C
331
1C03
  5
1C9A
331
1C99
  5
1D08
331
445
  5
445
331
1BB4
  5
1BDE
331
1C0B
  5
1D07
331
1BDC
  5
1BE8
331
4DD
  5
4DD
331
1327
  5
1327
331
1BE4
  5
1BED
331
1A6E
  5
1AAE
331
19E7
  5
19F0
331
1BF4
  5
1BFE
331
19EF
  5
19F8
331
1BFC
  5
1C06
331
163
  5
163
331
14AE
  5
14AE
331
1AAE
  5
1BD8
331
19F7
  5
1A9D
331
1C04
  5
1C9D
331
1C9A
  5
1D09
331
1BB5
  5
1BE1
331
446
  5
446
331
1BDD
  5
1BE9
331
4DE
  5
4DE
331
BC
  5
BC
331
1447
  5
1447
331
144F
  5
144F
331
1BE5
  5
1BEE
331
19E0
  5
19EC
331
1A6F
  5
1AAF
331
19E8
  5
19F1
331
1BF5
  5
1BFF
331
1BFD
  5
1C07
331
3F7
  5
3F7
331
164
  5
164
331
1328
  5
1328
331
14AF
  5
14AF
331
1378
  5
1378
331
19F0
  5
19F9
331
19F8
  5
1AA0
331
1AAF
  5
1BD9
331
1B96
  5
1BDB
331
18F1
  5
18F1
331
1BB6
  5
1BE3
331
1BDE
  5
1BEA
331
4DF
  5
4DF
331
105
  5
105
331
1448
  5
1448
331
1450
  5
1450
331
1BE6
  5
1BEF
331
1BEE
  5
1BF7
331
19E9
  5
19F2
331
1AA0
  5
1BB3
331
1BF6
  5
1C00
331
1BFE
  5
1C08
331
3F8
  5
3F8
331
165
  5
165
331
1379
  5
1379
331
19F1
  5
19FA
331
19F9
  5
1AA1
331
1B97
  5
1BDC
331
1C06
  5
1CDD
331
197A
  5
197A
331
1D03
  5
19DD
331
4D8
  5
4D8
331
4E0
  5
4E0
331
1389
  5
1389
331
1449
  5
1449
331
1322
  5
1322
331
1BE7
  5
1BF0
331
339
  5
339
331
1A99
  5
1B1B
331
1BEF
  5
1BF8
331
19EA
  5
19F3
331
1AA1
  5
1BB4
331
1BF7
  5
1C01
331
1BFF
  5
1C09
331
3F9
  5
3F9
331
166
  5
166
331
136A
  5
136A
331
137A
  5
137A
331
19F2
  5
19FB
331
19FA
  5
1AAB
331
1C07
  5
1D03
331
1C9D
  5
1D0A
331
1BD8
  5
1BE4
331
197B
  5
197B
331
1983
  5
1983
331
4D9
  5
4D9
331
4E1
  5
4E1
331
138A
  5
138A
331
1323
  5
1323
331
1BE8
  5
1BF1
331
1CDD
  5
1D0B
331
1BF0
  5
1BFA
331
1D08
  5
19E6
331
19EB
  5
19F4
331
1BF8
  5
1C02
331
3FA
  5
3FA
331
167
  5
167
  0
SORTENTSTABLE
  5
1CD9
102
{ACAD_REACTORS
330
1CD8
102
}
330
1CD8
100
AcDbSortentsTable
330
1CD6
  0
DIMASSOC
  5
1B34
102
{ACAD_REACTORS
330
1B29
102
}
330
1B29
100
AcDbDimAssoc
330
1B1B
 90
        2
 70
     0
 71
     0
  1
AcDbOsnapPointRef
 72
    13
331
165
 73
     2
 91
        0
 40
3.68000553774388
 10
2.517457301105828
 20
6.405267921637548
 30
0.0
 75
     0
  0
DIMASSOC
  5
1CB6
102
{ACAD_REACTORS
330
1CAB
102
}
330
1CAB
100
AcDbDimAssoc
330
1C9D
 90
        3
 70
     0
 71
     0
  1
AcDbOsnapPointRef
 72
     2
331
1C99
 73
     2
 91
        0
 40
0.5
 10
0.0
 20
0.0
 30
0.0
 75
     0
  1
AcDbOsnapPointRef
 72
     2
331
1C9A
 73
     2
 91
        0
 40
0.5
 10
0.0
 20
0.0
 30
0.0
 75
     0
  0
XRECORD
  5
1D4A
102
{ACAD_REACTORS
330
1D49
102
}
330
1D49
100
AcDbXrecord
280
     1
102
SHADEPLOT
 70
     0
  0
XRECORD
  5
1D4C
102
{ACAD_REACTORS
330
1D4B
102
}
330
1D4B
100
AcDbXrecord
280
     1
102
SHADEPLOT
 70
     0
  0
LAYOUT
  5
1D
102
{ACAD_XDICTIONARY
360
1D45
102
}
102
{ACAD_REACTORS
330
19
102
}
330
19
100
AcDbPlotSettings
  1

  2
\\IST17\PISCHPDJ8002
  4
User1288
  6

 40
4.995333194732666
 41
16.97565841674804
 42
4.99530029296875
 43
16.97567749023437
 44
558.7576293945312
 45
431.71533203125
 46
0.0
 47
0.0
 48
0.0
 49
0.0
140
0.0
141
0.0
142
1.0
143
1.0
 70
   688
 72
     0
 73
     0
 74
     5
  7
monochrome.ctb
 75
    16
147
1.0
148
0.0
149
0.0
100
AcDbLayout
  1
Layout1
 70
     0
 71
     1
 10
-0.1966666612099475
 20
-0.6683330085333877
 11
21.80166520471648
 21
16.32833360687016
 12
0.0
 22
0.0
 32
0.0
 14
0.9659999486968287
 24
0.8105000079147455
 34
0.0
 15
16.73234839051299
 25
14.03889153538586
 35
0.0
146
0.0
 13
0.0
 23
0.0
 33
0.0
 16
1.0
 26
0.0
 36
0.0
 17
0.0
 27
1.0
 37
0.0
 76
     0
330
1A
331
D7
  0
LAYOUT
  5
21
102
{ACAD_XDICTIONARY
360
1D47
102
}
102
{ACAD_REACTORS
330
19
102
}
330
19
100
AcDbPlotSettings
  1

  2
\\piscnafsp1\PISCHPDJ800
  4
User1639
  6

 40
0.0
 41
0.0
 42
0.0
 43
0.0
 44
863.6000366210938
 45
558.7999877929687
 46
0.0
 47
0.0
 48
-0.122425986684334
 49
-0.1080927424225351
140
31.67200773097297
141
20.60821493628358
142
1.0
143
1.0
 70
 11952
 72
     0
 73
     0
 74
     1
  7
monochrome.ctb
 75
    16
147
1.0
148
0.0247904937685689
149
-4.785755642021253
100
AcDbLayout
  1
Model
 70
     1
 71
     0
 10
0.0
 20
0.0
 11
12.0
 21
9.0
 12
0.0
 22
0.0
 32
0.0
 14
0.0
 24
0.0
 34
0.0
 15
0.0
 25
0.0
 35
0.0
146
0.0
 13
0.0
 23
0.0
 33
0.0
 16
1.0
 26
0.0
 36
0.0
 17
0.0
 27
1.0
 37
0.0
 76
     0
330
1E
331
1C45
1001
ACAD_PSEXT
1000
\\piscnafsp1\PISCHPDJ800
1000
HP DesignJet 800PS 42 by HP
1000
Design Center A Wing (865 Centennial)
1000

1070
     0
  0
MATERIAL
  5
1C48
102
{ACAD_XDICTIONARY
360
1D50
102
}
102
{ACAD_REACTORS
330
1C0F
102
}
330
1C0F
100
AcDbMaterial
  1
ByBlock
 73
     1
 78
     1
172
     1
176
     1
270
     1
274
     1
  0
MATERIAL
  5
1C47
102
{ACAD_XDICTIONARY
360
1D4E
102
}
102
{ACAD_REACTORS
330
1C0F
102
}
330
1C0F
100
AcDbMaterial
  1
ByLayer
 73
     1
 78
     1
172
     1
176
     1
270
     1
274
     1
  0
MATERIAL
  5
1C49
102
{ACAD_XDICTIONARY
360
1D52
102
}
102
{ACAD_REACTORS
330
1C0F
102
}
330
1C0F
100
AcDbMaterial
  1
Global
 73
     1
 78
     1
172
     1
176
     1
270
     1
274
     1
  0
MLEADERSTYLE
  5
1C8F
102
{ACAD_REACTORS
330
1C8E
102
}
330
1C8E
100
AcDbMLeaderStyle
170
     2
171
     1
172
     0
 90
        2
 40
0.0
 41
0.0
173
     1
 91
-1056964608
340
13
 92
       -2
290
     1
 42
0.09
291
     1
 43
0.36
  3
Standard
 44
0.18
300

342
11
174
     1
178
     6
175
     1
176
     0
 93
-1056964608
 45
0.18
292
     0
297
     0
 46
0.18
 94
-1056964608
 47
1.0
 49
1.0
140
1.0
293
     1
141
0.0
294
     1
177
     0
142
1.0
295
     0
296
     0
143
0.125
1001
ACAD_MLEADERVER
1070
     2
  0
MLINESTYLE
  5
17
102
{ACAD_REACTORS
330
16
102
}
330
16
100
AcDbMlineStyle
  2
STANDARD
 70
     0
  3

 62
   256
 51
90.0
 52
90.0
 71
     2
 49
0.5
 62
   256
  6
BYLAYER
 49
-0.5
 62
   256
  6
BYLAYER
  0
ACDBPLACEHOLDER
  5
F
102
{ACAD_REACTORS
330
E
102
}
330
E
  0
SCALE
  5
1C6D
102
{ACAD_REACTORS
330
1C6C
102
}
330
1C6C
100
AcDbScale
 70
     0
300
1:1
140
1.0
141
1.0
290
     1
  0
SCALE
  5
1C6E
102
{ACAD_REACTORS
330
1C6C
102
}
330
1C6C
100
AcDbScale
 70
     0
300
1:2
140
1.0
141
2.0
290
     0
  0
SCALE
  5
1C6F
102
{ACAD_REACTORS
330
1C6C
102
}
330
1C6C
100
AcDbScale
 70
     0
300
1:4
140
1.0
141
4.0
290
     0
  0
SCALE
  5
1C70
102
{ACAD_REACTORS
330
1C6C
102
}
330
1C6C
100
AcDbScale
 70
     0
300
1:5
140
1.0
141
5.0
290
     0
  0
SCALE
  5
1C71
102
{ACAD_REACTORS
330
1C6C
102
}
330
1C6C
100
AcDbScale
 70
     0
300
1:8
140
1.0
141
8.0
290
     0
  0
SCALE
  5
1C72
102
{ACAD_REACTORS
330
1C6C
102
}
330
1C6C
100
AcDbScale
 70
     0
300
1:10
140
1.0
141
10.0
290
     0
  0
SCALE
  5
1C73
102
{ACAD_REACTORS
330
1C6C
102
}
330
1C6C
100
AcDbScale
 70
     0
300
1:16
140
1.0
141
16.0
290
     0
  0
SCALE
  5
1C74
102
{ACAD_REACTORS
330
1C6C
102
}
330
1C6C
100
AcDbScale
 70
     0
300
1:20
140
1.0
141
20.0
290
     0
  0
SCALE
  5
1C75
102
{ACAD_REACTORS
330
1C6C
102
}
330
1C6C
100
AcDbScale
 70
     0
300
1:30
140
1.0
141
30.0
290
     0
  0
SCALE
  5
1C76
102
{ACAD_REACTORS
330
1C6C
102
}
330
1C6C
100
AcDbScale
 70
     0
300
1:40
140
1.0
141
40.0
290
     0
  0
SCALE
  5
1C77
102
{ACAD_REACTORS
330
1C6C
102
}
330
1C6C
100
AcDbScale
 70
     0
300
1:50
140
1.0
141
50.0
290
     0
  0
SCALE
  5
1C78
102
{ACAD_REACTORS
330
1C6C
102
}
330
1C6C
100
AcDbScale
 70
     0
300
1:100
140
1.0
141
100.0
290
     0
  0
SCALE
  5
1C79
102
{ACAD_REACTORS
330
1C6C
102
}
330
1C6C
100
AcDbScale
 70
     0
300
2:1
140
2.0
141
1.0
290
     0
  0
SCALE
  5
1C7A
102
{ACAD_REACTORS
330
1C6C
102
}
330
1C6C
100
AcDbScale
 70
     0
300
4:1
140
4.0
141
1.0
290
     0
  0
SCALE
  5
1C7B
102
{ACAD_REACTORS
330
1C6C
102
}
330
1C6C
100
AcDbScale
 70
     0
300
8:1
140
8.0
141
1.0
290
     0
  0
SCALE
  5
1C7C
102
{ACAD_REACTORS
330
1C6C
102
}
330
1C6C
100
AcDbScale
 70
     0
300
10:1
140
10.0
141
1.0
290
     0
  0
SCALE
  5
1C7D
102
{ACAD_REACTORS
330
1C6C
102
}
330
1C6C
100
AcDbScale
 70
     0
300
100:1
140
100.0
141
1.0
290
     0
  0
SCALE
  5
1C7E
102
{ACAD_REACTORS
330
1C6C
102
}
330
1C6C
100
AcDbScale
 70
     0
300
1/128" = 1'-0"
140
0.0078125
141
12.0
290
     0
  0
SCALE
  5
1C7F
102
{ACAD_REACTORS
330
1C6C
102
}
330
1C6C
100
AcDbScale
 70
     0
300
1/64" = 1'-0"
140
0.015625
141
12.0
290
     0
  0
SCALE
  5
1C80
102
{ACAD_REACTORS
330
1C6C
102
}
330
1C6C
100
AcDbScale
 70
     0
300
1/32" = 1'-0"
140
0.03125
141
12.0
290
     0
  0
SCALE
  5
1C81
102
{ACAD_REACTORS
330
1C6C
102
}
330
1C6C
100
AcDbScale
 70
     0
300
1/16" = 1'-0"
140
0.0625
141
12.0
290
     0
  0
SCALE
  5
1C82
102
{ACAD_REACTORS
330
1C6C
102
}
330
1C6C
100
AcDbScale
 70
     0
300
3/32" = 1'-0"
140
0.09375
141
12.0
290
     0
  0
SCALE
  5
1C83
102
{ACAD_REACTORS
330
1C6C
102
}
330
1C6C
100
AcDbScale
 70
     0
300
1/8" = 1'-0"
140
0.125
141
12.0
290
     0
  0
SCALE
  5
1C84
102
{ACAD_REACTORS
330
1C6C
102
}
330
1C6C
100
AcDbScale
 70
     0
300
3/16" = 1'-0"
140
0.1875
141
12.0
290
     0
  0
SCALE
  5
1C85
102
{ACAD_REACTORS
330
1C6C
102
}
330
1C6C
100
AcDbScale
 70
     0
300
1/4" = 1'-0"
140
0.25
141
12.0
290
     0
  0
SCALE
  5
1C86
102
{ACAD_REACTORS
330
1C6C
102
}
330
1C6C
100
AcDbScale
 70
     0
300
3/8" = 1'-0"
140
0.375
141
12.0
290
     0
  0
SCALE
  5
1C87
102
{ACAD_REACTORS
330
1C6C
102
}
330
1C6C
100
AcDbScale
 70
     0
300
1/2" = 1'-0"
140
0.5
141
12.0
290
     0
  0
SCALE
  5
1C88
102
{ACAD_REACTORS
330
1C6C
102
}
330
1C6C
100
AcDbScale
 70
     0
300
3/4" = 1'-0"
140
0.75
141
12.0
290
     0
  0
SCALE
  5
1C89
102
{ACAD_REACTORS
330
1C6C
102
}
330
1C6C
100
AcDbScale
 70
     0
300
1" = 1'-0"
140
1.0
141
12.0
290
     0
  0
SCALE
  5
1C8A
102
{ACAD_REACTORS
330
1C6C
102
}
330
1C6C
100
AcDbScale
 70
     0
300
1-1/2" = 1'-0"
140
1.5
141
12.0
290
     0
  0
SCALE
  5
1C8B
102
{ACAD_REACTORS
330
1C6C
102
}
330
1C6C
100
AcDbScale
 70
     0
300
3" = 1'-0"
140
3.0
141
12.0
290
     0
  0
SCALE
  5
1C8C
102
{ACAD_REACTORS
330
1C6C
102
}
330
1C6C
100
AcDbScale
 70
     0
300
6" = 1'-0"
140
6.0
141
12.0
290
     0
  0
SCALE
  5
1C8D
102
{ACAD_REACTORS
330
1C6C
102
}
330
1C6C
100
AcDbScale
 70
     0
300
1'-0" = 1'-0"
140
12.0
141
12.0
290
     0
  0
TABLESTYLE
  5
1C12
102
{ACAD_XDICTIONARY
360
1CF0
102
}
102
{ACAD_REACTORS
330
1C11
102
}
330
1C11
100
AcDbTableStyle
  3
Standard
 70
     0
 71
     0
 40
0.06
 41
0.06
280
     0
281
     0
  7
STANDARD
140
0.18
170
     2
 62
     0
 63
     7
283
     0
274
    -2
284
     1
 64
     0
275
    -2
285
     1
 65
     0
276
    -2
286
     1
 66
     0
277
    -2
287
     1
 67
     0
278
    -2
288
     1
 68
     0
279
    -2
289
     1
 69
     0
  7
STANDARD
140
0.25
170
     5
 62
     0
 63
     7
283
     0
274
    -2
284
     1
 64
     0
275
    -2
285
     1
 65
     0
276
    -2
286
     1
 66
     0
277
    -2
287
     1
 67
     0
278
    -2
288
     1
 68
     0
279
    -2
289
     1
 69
     0
  7
STANDARD
140
0.18
170
     5
 62
     0
 63
     7
283
     0
274
    -2
284
     1
 64
     0
275
    -2
285
     1
 65
     0
276
    -2
286
     1
 66
     0
277
    -2
287
     1
 67
     0
278
    -2
288
     1
 68
     0
279
    -2
289
     1
 69
     0
  0
VISUALSTYLE
  5
1C50
102
{ACAD_REACTORS
330
1C4A
102
}
330
1C4A
100
AcDbVisualStyle
  2
2dWireframe
 70
     4
 71
     0
 72
     2
 73
     0
 90
        0
 40
-0.6
 41
-30.0
 62
     5
 63
     7
 74
     1
 91
        4
 64
     7
 65
   257
 75
     1
175
     1
 42
1.0
 92
        0
 66
   257
 43
1.0
 76
     1
 77
     6
 78
     2
 67
     7
 79
     5
170
     0
171
     0
290
     0
174
     0
 93
        1
 44
0.0
173
     0
291
     0
 45
0.0
1001
ACAD
1000
AcDbSavedByObjectVersion
1070
     0
  0
VISUALSTYLE
  5
1C52
102
{ACAD_REACTORS
330
1C4A
102
}
330
1C4A
100
AcDbVisualStyle
  2
3D Hidden
 70
     6
 71
     1
 72
     2
 73
     2
 90
        0
 40
-0.6
 41
-30.0
 62
     5
 63
     7
 74
     2
 91
        2
 64
     7
 65
   257
 75
     2
175
     1
 42
40.0
 92
        0
 66
   257
 43
1.0
 76
     1
 77
     6
 78
     2
 67
     7
 79
     3
170
     0
171
     0
290
     0
174
     0
 93
        1
 44
0.0
173
     0
291
     0
 45
0.0
1001
ACAD
1000
AcDbSavedByObjectVersion
1070
     0
  0
VISUALSTYLE
  5
1C51
102
{ACAD_REACTORS
330
1C4A
102
}
330
1C4A
100
AcDbVisualStyle
  2
3dWireframe
 70
     5
 71
     0
 72
     2
 73
     0
 90
        0
 40
-0.6
 41
-30.0
 62
     5
 63
     7
 74
     1
 91
        4
 64
     7
 65
   257
 75
     1
175
     1
 42
1.0
 92
        0
 66
   257
 43
1.0
 76
     1
 77
     6
 78
     2
 67
     7
 79
     5
170
     0
171
     0
290
     0
174
     0
 93
        1
 44
0.0
173
     0
291
     0
 45
0.0
1001
ACAD
1000
AcDbSavedByObjectVersion
1070
     0
  0
VISUALSTYLE
  5
1C4F
102
{ACAD_REACTORS
330
1C4A
102
}
330
1C4A
100
AcDbVisualStyle
  2
Basic
 70
     7
 71
     1
 72
     0
 73
     1
 90
        0
 40
-0.6
 41
-30.0
 62
     5
 63
     7
 74
     0
 91
        4
 64
     7
 65
   257
 75
     1
175
     1
 42
1.0
 92
        8
 66
     7
 43
1.0
 76
     1
 77
     6
 78
     2
 67
     7
 79
     5
170
     0
171
     0
290
     0
174
     0
 93
        1
 44
0.0
173
     0
291
     1
 45
0.0
1001
ACAD
1000
AcDbSavedByObjectVersion
1070
     0
  0
VISUALSTYLE
  5
1C56
102
{ACAD_REACTORS
330
1C4A
102
}
330
1C4A
100
AcDbVisualStyle
  2
Brighten
 70
    12
 71
     2
 72
     2
 73
     0
 90
        0
 40
-0.6
 41
-30.0
 62
     5
 63
     7
 74
     1
 91
        4
 64
     7
 65
   257
 75
     1
175
     1
 42
1.0
 92
        8
 66
     7
 43
1.0
 76
     1
 77
     6
 78
     2
 67
     7
 79
     5
170
     0
171
     0
290
     0
174
     0
 93
        1
 44
50.0
173
     0
291
     1
 45
0.0
1001
ACAD
1000
AcDbSavedByObjectVersion
1070
     0
  0
VISUALSTYLE
  5
1C5A
102
{ACAD_REACTORS
330
1C4A
102
}
330
1C4A
100
AcDbVisualStyle
  2
ColorChange
 70
    16
 71
     2
 72
     2
 73
     3
 90
        0
 40
-0.6
 41
-30.0
 62
     5
 63
     8
 74
     1
 91
        4
 64
     7
 65
   257
 75
     1
175
     1
 42
1.0
 92
        8
 66
     8
 43
1.0
 76
     1
 77
     6
 78
     2
 67
     7
 79
     5
170
     0
171
     0
290
     0
174
     0
 93
        1
 44
0.0
173
     0
291
     1
 45
0.0
1001
ACAD
1000
AcDbSavedByObjectVersion
1070
     0
  0
VISUALSTYLE
  5
1C53
102
{ACAD_REACTORS
330
1C4A
102
}
330
1C4A
100
AcDbVisualStyle
  2
Conceptual
 70
     9
 71
     3
 72
     2
 73
     0
 90
        0
 40
-0.6
 41
-30.0
 62
     5
 63
     7
 74
     2
 91
        2
 64
     7
 65
   257
 75
     1
175
     1
 42
40.0
 92
        8
 66
     7
 43
1.0
 76
     1
 77
     6
 78
     2
 67
     7
 79
     3
170
     0
171
     0
290
     0
174
     0
 93
        1
 44
0.0
173
     0
291
     0
 45
0.0
1001
ACAD
1000
AcDbSavedByObjectVersion
1070
     0
  0
VISUALSTYLE
  5
1C55
102
{ACAD_REACTORS
330
1C4A
102
}
330
1C4A
100
AcDbVisualStyle
  2
Dim
 70
    11
 71
     2
 72
     2
 73
     0
 90
        0
 40
-0.6
 41
-30.0
 62
     5
 63
     7
 74
     1
 91
        4
 64
     7
 65
   257
 75
     1
175
     1
 42
1.0
 92
        8
 66
     7
 43
1.0
 76
     1
 77
     6
 78
     2
 67
     7
 79
     5
170
     0
171
     0
290
     0
174
     0
 93
        1
 44
-50.0
173
     0
291
     1
 45
0.0
1001
ACAD
1000
AcDbSavedByObjectVersion
1070
     0
  0
VISUALSTYLE
  5
1C59
102
{ACAD_REACTORS
330
1C4A
102
}
330
1C4A
100
AcDbVisualStyle
  2
Facepattern
 70
    15
 71
     2
 72
     2
 73
     0
 90
        0
 40
-0.6
 41
-30.0
 62
     5
 63
     7
 74
     1
 91
        4
 64
     7
 65
   257
 75
     1
175
     1
 42
1.0
 92
        8
 66
     7
 43
1.0
 76
     1
 77
     6
 78
     2
 67
     7
 79
     5
170
     0
171
     0
290
     0
174
     0
 93
        1
 44
0.0
173
     0
291
     1
 45
0.0
1001
ACAD
1000
AcDbSavedByObjectVersion
1070
     0
  0
VISUALSTYLE
  5
1C4B
102
{ACAD_REACTORS
330
1C4A
102
}
330
1C4A
100
AcDbVisualStyle
  2
Flat
 70
     0
 71
     2
 72
     1
 73
     1
 90
        2
 40
-0.6
 41
30.0
 62
     5
 63
     7
 74
     0
 91
        4
 64
     7
 65
   257
 75
     1
175
     1
 42
1.0
 92
        8
 66
     7
 43
1.0
 76
     1
 77
     6
 78
     2
 67
     7
 79
     5
170
     0
171
     0
290
     0
174
     0
 93
       13
 44
0.0
173
     0
291
     1
 45
0.0
1001
ACAD
1000
AcDbSavedByObjectVersion
1070
     0
  0
VISUALSTYLE
  5
1C4C
102
{ACAD_REACTORS
330
1C4A
102
}
330
1C4A
100
AcDbVisualStyle
  2
FlatWithEdges
 70
     1
 71
     2
 72
     1
 73
     1
 90
        2
 40
-0.6
 41
30.0
 62
     5
 63
     7
 74
     1
 91
        4
 64
     7
 65
   257
 75
     1
175
     1
 42
1.0
 92
        0
 66
   257
 43
1.0
 76
     1
 77
     6
 78
     2
 67
     7
 79
     5
170
     0
171
     0
290
     0
174
     0
 93
       13
 44
0.0
173
     0
291
     1
 45
0.0
1001
ACAD
1000
AcDbSavedByObjectVersion
1070
     0
  0
VISUALSTYLE
  5
1C4D
102
{ACAD_REACTORS
330
1C4A
102
}
330
1C4A
100
AcDbVisualStyle
  2
Gouraud
 70
     2
 71
     2
 72
     2
 73
     1
 90
        2
 40
-0.6
 41
30.0
 62
     5
 63
     7
 74
     0
 91
        4
 64
     7
 65
   257
 75
     1
175
     1
 42
1.0
 92
        0
 66
     7
 43
1.0
 76
     1
 77
     6
 78
     2
 67
     7
 79
     5
170
     0
171
     0
290
     0
174
     0
 93
       13
 44
0.0
173
     0
291
     1
 45
0.0
1001
ACAD
1000
AcDbSavedByObjectVersion
1070
     0
  0
VISUALSTYLE
  5
1C4E
102
{ACAD_REACTORS
330
1C4A
102
}
330
1C4A
100
AcDbVisualStyle
  2
GouraudWithEdges
 70
     3
 71
     2
 72
     2
 73
     1
 90
        2
 40
-0.6
 41
30.0
 62
     5
 63
     7
 74
     1
 91
        4
 64
     7
 65
   257
 75
     1
175
     1
 42
1.0
 92
        0
 66
   257
 43
1.0
 76
     1
 77
     6
 78
     2
 67
     7
 79
     5
170
     0
171
     0
290
     0
174
     0
 93
       13
 44
0.0
173
     0
291
     1
 45
0.0
1001
ACAD
1000
AcDbSavedByObjectVersion
1070
     0
  0
VISUALSTYLE
  5
1C58
102
{ACAD_REACTORS
330
1C4A
102
}
330
1C4A
100
AcDbVisualStyle
  2
Linepattern
 70
    14
 71
     2
 72
     2
 73
     0
 90
        0
 40
-0.6
 41
-30.0
 62
     5
 63
     7
 74
     1
 91
        4
 64
     7
 65
   257
 75
     7
175
     7
 42
1.0
 92
        8
 66
     7
 43
1.0
 76
     1
 77
     6
 78
     2
 67
     7
 79
     5
170
     0
171
     0
290
     0
174
     0
 93
        1
 44
0.0
173
     0
291
     1
 45
0.0
1001
ACAD
1000
AcDbSavedByObjectVersion
1070
     0
  0
VISUALSTYLE
  5
1C54
102
{ACAD_REACTORS
330
1C4A
102
}
330
1C4A
100
AcDbVisualStyle
  2
Realistic
 70
     8
 71
     2
 72
     2
 73
     0
 90
        0
 40
-0.6
 41
-30.0
 62
     5
 63
     7
 74
     1
 91
        0
 64
     7
 65
   257
 75
     1
175
     1
 42
1.0
 92
        8
 66
     8
 43
1.0
 76
     1
 77
     6
 78
     2
 67
     7
 79
     5
170
     0
171
     0
290
     0
174
     0
 93
       13
 44
0.0
173
     0
291
     0
 45
0.0
1001
ACAD
1000
AcDbSavedByObjectVersion
1070
     0
  0
VISUALSTYLE
  5
1C57
102
{ACAD_REACTORS
330
1C4A
102
}
330
1C4A
100
AcDbVisualStyle
  2
Thicken
 70
    13
 71
     2
 72
     2
 73
     0
 90
        0
 40
-0.6
 41
-30.0
 62
     5
 63
     7
 74
     1
 91
        4
 64
     7
 65
   257
 75
     1
175
     1
 42
1.0
 92
       12
 66
     7
 43
1.0
 76
     1
 77
     6
 78
     2
 67
     7
 79
     5
170
     0
171
     0
290
     0
174
     0
 93
        1
 44
0.0
173
     0
291
     1
 45
0.0
1001
ACAD
1000
AcDbSavedByObjectVersion
1070
     0
  0
DICTIONARYVAR
  5
1CF5
102
{ACAD_REACTORS
330
109
102
}
330
109
100
DictionaryVariables
280
     0
  1
1:1
  0
DICTIONARYVAR
  5
1CF3
102
{ACAD_REACTORS
330
109
102
}
330
109
100
DictionaryVariables
280
     0
  1
STANDARD
  0
DICTIONARYVAR
  5
1C29
102
{ACAD_REACTORS
330
109
102
}
330
109
100
DictionaryVariables
280
     0
  1
STANDARD
  0
DICTIONARYVAR
  5
10B
102
{ACAD_REACTORS
330
109
102
}
330
109
100
DictionaryVariables
280
     0
  1
2
  0
DICTIONARYVAR
  5
10A
102
{ACAD_REACTORS
330
109
102
}
330
109
100
DictionaryVariables
280
     0
  1
1
  0
DICTIONARYVAR
  5
1D42
102
{ACAD_REACTORS
330
109
102
}
330
109
100
DictionaryVariables
280
     0
  1
0
  0
DICTIONARYVAR
  5
1CF7
102
{ACAD_REACTORS
330
109
102
}
330
109
100
DictionaryVariables
280
     0
  1
1
  0
DICTIONARYVAR
  5
1CF8
102
{ACAD_REACTORS
330
109
102
}
330
109
100
DictionaryVariables
280
     0
  1
15
  0
DICTIONARYVAR
  5
1CF6
102
{ACAD_REACTORS
330
109
102
}
330
109
100
DictionaryVariables
280
     0
  1
0
  0
DICTIONARYVAR
  5
1CF4
102
{ACAD_REACTORS
330
109
102
}
330
109
100
DictionaryVariables
280
     0
  1
0
  0
DICTIONARYVAR
  5
1D41
102
{ACAD_REACTORS
330
109
102
}
330
109
100
DictionaryVariables
280
     0
  1
127
  0
DICTIONARY
  5
1D45
330
1D
100
AcDbDictionary
280
     1
281
     1
  3
ACAD_XREC_ROUNDTRIP
360
1D46
  0
DICTIONARY
  5
1D47
330
21
100
AcDbDictionary
280
     1
281
     1
  3
ACAD_XREC_ROUNDTRIP
360
1D48
  0
DICTIONARY
  5
1D50
330
1C48
100
AcDbDictionary
280
     1
281
     1
  3
ACAD_XREC_ROUNDTRIP
360
1D51
  0
DICTIONARY
  5
1D4E
330
1C47
100
AcDbDictionary
280
     1
281
     1
  3
ACAD_XREC_ROUNDTRIP
360
1D4F
  0
DICTIONARY
  5
1D52
330
1C49
100
AcDbDictionary
280
     1
281
     1
  3
ACAD_XREC_ROUNDTRIP
360
1D53
  0
DICTIONARY
  5
1CF0
330
1C12
100
AcDbDictionary
280
     1
281
     1
  3
ACAD_ROUNDTRIP_2008_TABLESTYLE_CELLSTYLEMAP
360
1D43
  3
ACAD_XREC_ROUNDTRIP
360
1D4D
  0
XRECORD
  5
1D46
102
{ACAD_REACTORS
330
1D45
102
}
330
1D45
100
AcDbXrecord
280
     1
102
SHADEPLOT
 70
     0
102
SHADEPLOTRESLEVEL
 70
     2
102
SHADEPLOTCUSTOMDPI
 70
   300
  0
XRECORD
  5
1D48
102
{ACAD_REACTORS
330
1D47
102
}
330
1D47
100
AcDbXrecord
280
     1
102
SHADEPLOT
 70
     0
102
SHADEPLOTRESLEVEL
 70
     2
102
SHADEPLOTCUSTOMDPI
 70
   300
  0
XRECORD
  5
1D51
102
{ACAD_REACTORS
330
1D50
102
}
330
1D50
100
AcDbXrecord
280
     1
102
MATERIAL
148
0.0
149
0.0
149
0.0
 93
        0
 94
       63
282
     0
 72
     1
 77
     1
171
     1
175
     1
179
     1
273
     0
  0
XRECORD
  5
1D4F
102
{ACAD_REACTORS
330
1D4E
102
}
330
1D4E
100
AcDbXrecord
280
     1
102
MATERIAL
148
0.0
149
0.0
149
0.0
 93
        0
 94
       63
282
     0
 72
     1
 77
     1
171
     1
175
     1
179
     1
273
     0
  0
XRECORD
  5
1D53
102
{ACAD_REACTORS
330
1D52
102
}
330
1D52
100
AcDbXrecord
280
     1
102
MATERIAL
148
0.0
149
0.0
149
0.0
 93
        0
 94
       63
282
     0
 72
     1
 77
     1
171
     1
175
     1
179
     1
273
     0
  0
CELLSTYLEMAP
  5
1D43
102
{ACAD_REACTORS
330
1CF0
102
}
330
1CF0
100
AcDbCellStyleMap
 90
        3
300
CELLSTYLE
  1
TABLEFORMAT_BEGIN
 90
        5
170
     1
 91
        0
 92
    32768
 62
   257
 93
        1
300
CONTENTFORMAT
  1
CONTENTFORMAT_BEGIN
 90
        0
 91
        0
 92
        4
 93
        0
300

 40
0.0
140
1.0
 94
        5
 62
     0
340
11
144
0.25
309
CONTENTFORMAT_END
171
     0
 94
        6
 95
        1
302
GRIDFORMAT
  1
GRIDFORMAT_BEGIN
 90
        0
 91
        1
 62
     0
 92
       -2
340
0
 93
        0
 40
0.045
309
GRIDFORMAT_END
 95
        2
302
GRIDFORMAT
  1
GRIDFORMAT_BEGIN
 90
        0
 91
        1
 62
     0
 92
       -2
340
0
 93
        0
 40
0.045
309
GRIDFORMAT_END
 95
        4
302
GRIDFORMAT
  1
GRIDFORMAT_BEGIN
 90
        0
 91
        1
 62
     0
 92
       -2
340
0
 93
        0
 40
0.045
309
GRIDFORMAT_END
 95
        8
302
GRIDFORMAT
  1
GRIDFORMAT_BEGIN
 90
        0
 91
        1
 62
     0
 92
       -2
340
0
 93
        0
 40
0.045
309
GRIDFORMAT_END
 95
       16
302
GRIDFORMAT
  1
GRIDFORMAT_BEGIN
 90
        0
 91
        1
 62
     0
 92
       -2
340
0
 93
        0
 40
0.045
309
GRIDFORMAT_END
 95
       32
302
GRIDFORMAT
  1
GRIDFORMAT_BEGIN
 90
        0
 91
        1
 62
     0
 92
       -2
340
0
 93
        0
 40
0.045
309
GRIDFORMAT_END
309
TABLEFORMAT_END
  1
CELLSTYLE_BEGIN
 90
        1
 91
        1
300
_TITLE
309
CELLSTYLE_END
300
CELLSTYLE
  1
TABLEFORMAT_BEGIN
 90
        5
170
     1
 91
        0
 92
        0
 62
   257
 93
        1
300
CONTENTFORMAT
  1
CONTENTFORMAT_BEGIN
 90
        0
 91
        0
 92
        4
 93
        0
300

 40
0.0
140
1.0
 94
        5
 62
     0
340
11
144
0.18
309
CONTENTFORMAT_END
171
     0
 94
        6
 95
        1
302
GRIDFORMAT
  1
GRIDFORMAT_BEGIN
 90
        0
 91
        1
 62
     0
 92
       -2
340
0
 93
        0
 40
0.045
309
GRIDFORMAT_END
 95
        2
302
GRIDFORMAT
  1
GRIDFORMAT_BEGIN
 90
        0
 91
        1
 62
     0
 92
       -2
340
0
 93
        0
 40
0.045
309
GRIDFORMAT_END
 95
        4
302
GRIDFORMAT
  1
GRIDFORMAT_BEGIN
 90
        0
 91
        1
 62
     0
 92
       -2
340
0
 93
        0
 40
0.045
309
GRIDFORMAT_END
 95
        8
302
GRIDFORMAT
  1
GRIDFORMAT_BEGIN
 90
        0
 91
        1
 62
     0
 92
       -2
340
0
 93
        0
 40
0.045
309
GRIDFORMAT_END
 95
       16
302
GRIDFORMAT
  1
GRIDFORMAT_BEGIN
 90
        0
 91
        1
 62
     0
 92
       -2
340
0
 93
        0
 40
0.045
309
GRIDFORMAT_END
 95
       32
302
GRIDFORMAT
  1
GRIDFORMAT_BEGIN
 90
        0
 91
        1
 62
     0
 92
       -2
340
0
 93
        0
 40
0.045
309
GRIDFORMAT_END
309
TABLEFORMAT_END
  1
CELLSTYLE_BEGIN
 90
        2
 91
        1
300
_HEADER
309
CELLSTYLE_END
300
CELLSTYLE
  1
TABLEFORMAT_BEGIN
 90
        5
170
     1
 91
        0
 92
        0
 62
   257
 93
        1
300
CONTENTFORMAT
  1
CONTENTFORMAT_BEGIN
 90
        0
 91
        0
 92
        4
 93
        0
300

 40
0.0
140
1.0
 94
        2
 62
     0
340
11
144
0.18
309
CONTENTFORMAT_END
171
     0
 94
        6
 95
        1
302
GRIDFORMAT
  1
GRIDFORMAT_BEGIN
 90
        0
 91
        1
 62
     0
 92
       -2
340
0
 93
        0
 40
0.045
309
GRIDFORMAT_END
 95
        2
302
GRIDFORMAT
  1
GRIDFORMAT_BEGIN
 90
        0
 91
        1
 62
     0
 92
       -2
340
0
 93
        0
 40
0.045
309
GRIDFORMAT_END
 95
        4
302
GRIDFORMAT
  1
GRIDFORMAT_BEGIN
 90
        0
 91
        1
 62
     0
 92
       -2
340
0
 93
        0
 40
0.045
309
GRIDFORMAT_END
 95
        8
302
GRIDFORMAT
  1
GRIDFORMAT_BEGIN
 90
        0
 91
        1
 62
     0
 92
       -2
340
0
 93
        0
 40
0.045
309
GRIDFORMAT_END
 95
       16
302
GRIDFORMAT
  1
GRIDFORMAT_BEGIN
 90
        0
 91
        1
 62
     0
 92
       -2
340
0
 93
        0
 40
0.045
309
GRIDFORMAT_END
 95
       32
302
GRIDFORMAT
  1
GRIDFORMAT_BEGIN
 90
        0
 91
        1
 62
     0
 92
       -2
340
0
 93
        0
 40
0.045
309
GRIDFORMAT_END
309
TABLEFORMAT_END
  1
CELLSTYLE_BEGIN
 90
        3
 91
        2
300
_DATA
309
CELLSTYLE_END
  0
XRECORD
  5
1D4D
102
{ACAD_REACTORS
330
1CF0
102
}
330
1CF0
100
AcDbXrecord
280
     1
102
ACAD_ROUNDTRIP_PRE2007_TABLESTYLE
 90
        4
 91
        0
  1

 92
        4
 93
        0
  2

 94
        4
 95
        0
  3

  0
ENDSEC
  0
EOF
